Скачать через торрент Было время. Телевидение Перестройки - Программа Взгляд Фильм бесплатно в хорошем качестве torrent

Скачивайте на UnionPeer.org фильмы через торрент без регистрации. Новинки кино в хорошем качестве через торрент. На UnionPeer.org можно скачать через торрент фильмы 2014 и 2015 годов. Самые новые фильмы.

Скачать торрент Было время. Телевидение Перестройки - Программа Взгляд бесплатно через .torrent фильм мультфильм сериал

Если у вас наблюдаются проблемы со скриншотами, переходом по ссылками, скачиванием торрентов - проблемы в блокировщике рекламы AdBlock. #хорошегоДня!


Статистика раздачи
Размер:  778 MB   |    Зарегистрирован:  2 месяца 3 дня   |    .torrent скачан:  7 раз   |   
Раздают:  1  
   
Загрузка...
 
Автор Сообщение

Galfimbul

avatar Galfimbul


Было время

Год выпуска: 2006
Страна: Россия
Жанр: информационно-аналитическая программа
Продолжительность: 01:05:47
Перевод: Не требуется
Русские субтитры: нет
Релиз собственный

Режиссер: Антон Ефимов

Телеканал: Ностальгия
Описание: «Было ВРЕМЯ» — еженедельная информационно-аналитическая программа. Подробное обсуждение важнейших событий и явлений 60-х — 90-х годов прошлого века с участием свидетелей и участников событий. Особенность программы — отсутствие постоянного ведущего. Каждый выпуск выходит с новым ведущим: Леонид Якубович, Александр Политковский, Леонид Млечин, Сергей Доренко, Кирилл Набутов, Александр Гурнов, Юрий Николаев, Дмитрий Дибров — далеко не полный список звёзд экрана, побывавших в этой программе в качестве ведущих.

К 30-летию программы "Взгляд". Телеканал "Ностальгия" 02.10.2017

Гости программы: Дмитрий Захаров, Юрий Богомолов, Анатолий Лысенко
Ведущий: Александр Политковский

качество: IPTVRip
формат: AVI
Видео: 720x544 (1.32:1), 25 fps, XviD MPEG-4 ~1514 kbps avg, 0.15 bit/pixel
Аудио: 44.100 kHz, MPEG Layer 3, 2 ch, ~128 kbps avg
ОбщееПолное имя : G:\Видео\Было время (2006) Телевидение Перестройки - программа Взгляд.aviФормат : AVIФормат/Информация : Audio Video InterleaveРазмер файла : 778 МбайтПродолжительность : 1 ч. 5 м.Общий поток : 1652 Кбит/секБиблиотека кодирования : VirtualDub build 32842/releaseПравообладатель : IPTVRip by FakhreyПримечание : rutracker.org

ВидеоИдентификатор : 0Формат : MPEG-4 VisualПрофиль формата : Advanced Simple@L5Параметр BVOP формата : 2Параметр QPel формата : НетПараметр GMC формата : Без точки переходаПараметр матрицы формата : Default (H.263)Идентификатор кодека : XVIDИдентификатор кодека/Подсказка : XviDПродолжительность : 1 ч. 5 м.Битрейт : 1515 Кбит/секШирина : 720 пикселейВысота : 544 пикселяСоотношение сторон : 4:3Частота кадров : 25,000 кадров/секЦветовое пространство : YUVСубдискретизация насыщенности : 4:2:0Битовая глубина : 8 битТип развёртки : ПрогрессивнаяМетод сжатия : С потерямиБит/(Пиксели*Кадры) : 0.155Размер потока : 713 Мбайт (92%)Библиотека кодирования : XviD 64

АудиоИдентификатор : 1Формат : MPEG AudioВерсия формата : Version 1Профиль формата : Layer 3Режим : Joint stereoРасширение режима : MS StereoИдентификатор кодека : 55Идентификатор кодека/Подсказка : MP3Продолжительность : 1 ч. 5 м.Вид битрейта : ПостоянныйБитрейт : 128 Кбит/секКаналы : 2 каналаЧастота : 44,1 КГцМетод сжатия : С потерямиРазмер потока : 60,1 Мбайт (8%)Выравнивание : Разделение по промежуткамПродолжительность промежутка : 40 мс. (1,00 видеокадр)Время предзагрузки промежутка : 501 мс.


Трекер:  [ 09-Окт-2017 15:12 ]

  

Скачать .torrent

Размер .torrent файла 15 KB


Размер: 778 MB
Хэш (hash) релиза: 7d0b311e20ac93e296afa92f2a0a1189aa07ee3d
Подписка на обновления:

Еще никто не оставлял запись к записи скачать торрент Было время. Телевидение Перестройки - Программа Взгляд . Будь первым!

!Обратная связь