Скачать через торрент Код:Осознание - Страж перерождения Code:Realize Sousei no Himegimi бесплатно Аниме Все серии на русском torrent

Если у вас наблюдаются проблемы со скриншотами, переходом по ссылками, скачиванием торрентов - проблемы в блокировщике рекламы AdBlock. #хорошегоДня!


Статистика раздачи
Размер:  316 MB   |    Зарегистрирован:  2 месяца 3 дня   |    .torrent скачан:  6 раз   |   
Раздают:  1  
   
Загрузка...
 
Автор Сообщение

Galfimbul

avatar Galfimbul


Код:Осознание - Страж перерождения
Code:Realize Sousei no Himegimi
Code:Realize - Guardian of Rebirth
Code:Realize ~創世の姫君~

Страна: Япония
Год выпуска: 2017 г.
Жанр: фэнтези, романтика, сёдзё
Тип: TV
Продолжительность: 12 эп. по ~24 мин.
Режиссер: Ямамото Хидэё
Студия: M.S.C.Русские субтитры от AniPlay
Перевод: darytae, Loulka | Редактура: OctupusОписание: В запертом и заброшенном особняке, в пустынном месте живёт… Нет, не страшное привидение, а всего лишь девочка по имени Кардия. Но причину, по которой ей приходится жить в таком жутком месте, как раз можно назвать страшной. Дело в том, что в крови Кардии течёт настоящий яд! И всё, чего она касается, либо гниёт, либо плавится. Поэтому девочка пообещала своему отцу, что будет жить в этом особняке и держаться подальше от дружбы и любви. Но внезапно её отец пропадает без вести.

Говорят, что беда не приходит одна. В то же время начал обостряться и страх людей к зловещей силе Кардии. К ней в особняк заявилась Королевская Гвардия, чтобы схватить девочку. Спасение нашлось в лице некоего Арсена Люпина, который освободил Кардию из лап Королевской Гвардии. Вместе они решают отправиться на поиски отца Кардии, так некстати покинувшего девочку. Во время этого увлекательного приключения, путники познакомятся со многими людьми и попытаются разгадать историю таинственного проклятия, поразившего Кардию.Информационные ссылки: AniDB | MyAnimeList | World ArtКачество: HDTVRip
Тип релиза: Без хардсаба
Формат видео: MP4
Наличие линковки: Нет
Релиз/Автор рипа: Leopard-Raws
Видео: x264, 8 bit, 1280x720, ~1644 Kbps, 23.976 fps
Аудио (int): JAP, AAC, 48000 Hz, ~192 Kbps, 2 ch
Субтитры (ext): RUS, ASS
<div class="sp-wrap">
<div class="sp-head folded">MediaInfo</div>
<div class="sp-body">

Формат : MPEG-4Профиль формата : Base MediaИдентификатор кодека : isom (isom/avc1/iso6)Размер файла : 316 МбайтПродолжительность : 24 м. 0 с.Режим общего битрейта : ПеременныйОбщий поток : 1840 Кбит/секДата кодирования : UTC 2017-10-08 17:24:57Дата пометки : UTC 2017-10-08 17:24:57

ВидеоИдентификатор : 1Формат : AVCФормат/Информация : Advanced Video CodecПрофиль формата : High@L4.1Параметр CABAC формата : ДаПараметр ReFrames формата : 4 кадраИдентификатор кодека : avc1Идентификатор кодека/Информация : Advanced Video CodingПродолжительность : 24 м. 0 с.Битрейт : 1644 Кбит/секМаксимальный битрейт : 7646 Кбит/секШирина : 1280 пикселейВысота : 720 пикселейСоотношение сторон : 16:9Режим частоты кадров : ПостоянныйЧастота кадров : 23,976 (24000/1001) кадра/секЦветовое пространство : YUVСубдискретизация насыщенности : 4:2:0Битовая глубина : 8 битТип развёртки : ПрогрессивнаяБит/(Пиксели*Кадры) : 0.074Размер потока : 282 Мбайт (89%)Заголовок : 264:fps=23.976@GPAC0.5.2-DEV-rev376-g5eeb74d-masterБиблиотека кодирования : x264 core 129 r2245+729M 1a52e03Настройки программы : cabac=1 / ref=4 / deblock=1:1:-1 / analyse=0x3:0x113 / me=umh / subme=9 / psy=1 / fade_compensate=0.00 / psy_rd=1.00:0.00 / mixed_ref=1 / me_range=24 / chroma_me=1 / trellis=2 / 8x8dct=1 / cqm=0 / deadzone=21,11 / fast_pskip=1 / chroma_qp_offset=-2 / threads=8 / lookahead_threads=1 / sliced_threads=0 / nr=0 / decimate=1 / interlaced=0 / bluray_compat=0 / constrained_intra=0 / fgo=0 / bframes=9 / b_pyramid=2 / b_adapt=2 / b_bias=0 / direct=1 / weightb=1 / open_gop=0 / weightp=2 / keyint=240 / keyint_min=24 / scenecut=40 / intra_refresh=0 / rc=crf / mbtree=0 / crf=18.5 / qcomp=0.72 / qpmin=0 / qpmax=69 / qpstep=4 / ip_ratio=1.40 / pb_ratio=1.30 / aq=1:0.85Дата кодирования : UTC 2017-10-08 17:24:57Дата пометки : UTC 2017-10-08 17:25:08Цветовой диапазон : LimitedОсновные цвета : BT.709Характеристики трансфера : BT.709Коэффициенты матрицы : BT.709

АудиоИдентификатор : 2Формат : AACФормат/Информация : Advanced Audio CodecПрофиль формата : LCИдентификатор кодека : 40Продолжительность : 24 м. 0 с.Вид битрейта : ПеременныйБитрейт : 192 Кбит/секМаксимальный битрейт : 224 Кбит/секКаналы : 2 каналаРасположение каналов : Front: L RЧастота : 48,0 КГцЧастота кадров : 46,875 кадров/сек (1024 spf)Метод сжатия : С потерямиРазмер потока : 32,9 Мбайт (10%)Язык : JapaneseДата кодирования : UTC 2017-10-08 02:55:06Дата пометки : UTC 2017-10-08 17:25:08
</div>
</div>
01. London Steam
02.


Трекер:  [ 09-Окт-2017 16:01 ]

  

Скачать .torrent

Размер .torrent файла 1 KB


Размер: 316 MB
Хэш (hash) релиза: 2aa867f8575c8d8a7483f564f027aa32bcb2e61e
Подписка на обновления:

Еще никто не оставлял запись к записи скачать торрент Код:Осознание - Страж перерождения Code:Realize Sousei no Himegimi . Будь первым!

!Обратная связь