Скачать через торрент Это было в Орше Фильм бесплатно в хорошем качестве torrent

Скачивайте на UnionPeer.org фильмы через торрент без регистрации. Новинки кино в хорошем качестве через торрент. На UnionPeer.org можно скачать через торрент фильмы 2014 и 2015 годов. Самые новые фильмы.

Скачать торрент Это было в Орше бесплатно через .torrent фильм мультфильм сериал

Если у вас наблюдаются проблемы со скриншотами, переходом по ссылками, скачиванием торрентов - проблемы в блокировщике рекламы AdBlock. #хорошегоДня!


Статистика раздачи
Размер:  930 MB   |    Зарегистрирован:  2 месяца 2 дня   |    .torrent скачан:  13 раз   |   
Раздают:  2  
   
Загрузка...
 
Автор Сообщение

Galfimbul

avatar Galfimbul


Это было в Орше

Год выпуска: 1970
Страна: Белорусская ССР
Жанр: Хроникально-документальный
Продолжительность: 00:49:05
Перевод: Не требуется
Режиссер: Л.Б.Броутман
Авторы сценария: А.Богомолов, Ю.Лесохин

Релиз:

Описание: О подполье г. Орши Витебской области, Герое Советского Союза, подпольщике и командире партизанской бригады "Дяди Кости" Константине Сергеевиче Заслонове.

Доп. информация: Запись потока *.ts с наземного цифрового телеканала "Беларусь 3".

Благодарность: за помощь с недостающим материалом Bartimeyse и PavelDAS. Обоим большое спасибо!
...9778909
Качество: DVB
Контейнер: TS
Видео кодек: H.264
Аудио кодек: MP2
Видео: MPEG4 Video (H264) 720(785)x576 (49:36) 25fps, 2 259 kb/s
Аудио: MPEG Audio 48000Hz stereo 256kbps

Сэмпл: https://www.sendspace.com/file/uvlsce
GeneralID : 1 (0x1)Complete name : D:\Новая земля 2\001 Документальный фильмы\ВОВ и другие войны\Это было в Орше (1970)\Это было в Орше (1970).tsFormat : MPEG-TSFile size : 930 MiBDuration : 49 minOverall bit rate mode : VariableOverall bit rate : 2 648 kb/s

VideoID : 801 (0x321)Menu ID : 1 (0x1)Format : AVCFormat/Info : Advanced Video CodecFormat profile : Main@L3Format settings, CABAC : YesFormat settings, ReFrames : 4 framesFormat settings, GOP : M=4, N=24Codec ID : 27Duration : 49 minBit rate : 2 259 kb/sWidth : 720 pixelsHeight : 576 pixelsDisplay aspect ratio : 4:3Frame rate : 25.000 FPSStandard : PALColor space : YUVChroma subsampling : 4:2:0Bit depth : 8 bitsScan type : MBAFFScan type, store method : Separated fieldsScan order : Top Field FirstBits/(Pixel*Frame) : 0.218Stream size : 793 MiB (85%)Color range : LimitedColor primaries : BT.601 PALTransfer characteristics : BT.470 System B, BT.470 System GMatrix coefficients : BT.601

AudioID : 802 (0x322)Menu ID : 1 (0x1)Format : MPEG AudioFormat version : Version 1Format profile : Layer 2Codec ID : 3Duration : 49 minBit rate mode : ConstantBit rate : 256 kb/sChannel(s) : 2 channelsSampling rate : 48.0 kHzCompression mode : LossyStream size : 89.9 MiB (10%)Language : English


Трекер:  [ 09-Окт-2017 16:42 ]

  

Скачать .torrent

Размер .torrent файла 18 KB


Размер: 930 MB
Хэш (hash) релиза: cb3064623ed05126caa5fca92c163d8cbd7b26ac
Подписка на обновления:

Еще никто не оставлял запись к записи скачать торрент Это было в Орше . Будь первым!

!Обратная связь