Скачать через торрент Страна самоцветов Houseki no Kuni бесплатно Аниме Все серии на русском torrent

Если у вас наблюдаются проблемы со скриншотами, переходом по ссылками, скачиванием торрентов - проблемы в блокировщике рекламы AdBlock. #хорошегоДня!


Статистика раздачи
Размер:  585 MB   |    Зарегистрирован:  2 месяца 3 дня   |    .torrent скачан:  7 раз   |   
Раздают:  1  
   
Загрузка...
 
Автор Сообщение

Galfimbul

avatar Galfimbul


Страна самоцветов
Houseki no Kuni
Land of the Lustrous
Country of Jewels
宝石の国

Страна: Япония
Год выпуска: 2017 г.
Жанр: приключения, фэнтези, сэйнэн
Тип: TV
Продолжительность: 12 эп. по ~24 мин.
Режиссер: Кёгоку Такахико
Студия: OrangeРусские субтитры от YakuSub Studio
Перевод/Оформление: Nika_Elrik | Редактура: Arashi-samaОписание: Кто бы мог подумать, что в далёком будущем население Земли всё-таки обретёт вечную жизнь, бессмертие. Но только, по своей сути, эти бессмертные существа будут напоминать людей внешне, но не являться ими в действительности. Вместо человеческой цивилизации развернётся цивилизация Самоцветов. Но на соседних планетах и спутниках жизнь тоже начала кипеть ключом. Например, на Луне поселился Лунный народец, имеющий весьма воинственные взгляды.

Так, Самоцветам всё время приходится защищаться от этих Лунатиков, которые спят и видят, как бы им завоевать новых жителей Земли. Лунный народ постоянно вторгается на планету и устраивает там нешуточный переполох. Поэтому, каждой из представительниц Самоцветов необходимо принимать участие в спасении своего народа. Даже если это получается не очень хорошо, как например у 300-летней Фосфофиллит, хрупкой и нежной самоцветки. Битвы - это явно не её стезя. Но во имя общего блага важен каждый вклад, поэтому ей впервые в жизни доверяют выполнить работу редактора исторического журнала.Информационные ссылки: AniDB | MyAnimeList | World ArtКачество: HDTVRip
Тип релиза: Без хардсаба
Формат видео: MP4
Наличие линковки: Нет
Релиз/Автор рипа: Leopard-Raws
Видео: x264, 8 bit, 1280x720, ~3214 Kbps, 23.976 fps
Аудио (int): JAP, AAC, 48000 Hz, ~192 Kbps, 2 ch
Субтитры (ext): RUS, ASS
<div class="sp-wrap">
<div class="sp-head folded">MediaInfo</div>
<div class="sp-body">

Формат : MPEG-4Профиль формата : Base MediaИдентификатор кодека : isom (isom/avc1/iso6)Размер файла : 585 МбайтПродолжительность : 24 м. 0 с.Режим общего битрейта : ПеременныйОбщий поток : 3408 Кбит/секДата кодирования : UTC 2017-10-08 17:26:16Дата пометки : UTC 2017-10-08 17:26:16

ВидеоИдентификатор : 1Формат : AVCФормат/Информация : Advanced Video CodecПрофиль формата : High@L4.1Параметр CABAC формата : ДаПараметр ReFrames формата : 4 кадраИдентификатор кодека : avc1Идентификатор кодека/Информация : Advanced Video CodingПродолжительность : 24 м. 0 с.Битрейт : 3214 Кбит/секМаксимальный битрейт : 21,1 Мбит/секШирина : 1280 пикселейВысота : 720 пикселейСоотношение сторон : 16:9Режим частоты кадров : ПостоянныйЧастота кадров : 23,976 (24000/1001) кадра/секЦветовое пространство : YUVСубдискретизация насыщенности : 4:2:0Битовая глубина : 8 битТип развёртки : ПрогрессивнаяБит/(Пиксели*Кадры) : 0.145Размер потока : 552 Мбайт (94%)Заголовок : 264:fps=23.976@GPAC0.5.2-DEV-rev376-g5eeb74d-masterБиблиотека кодирования : x264 core 129 r2245+729M 1a52e03Настройки программы : cabac=1 / ref=4 / deblock=1:1:-1 / analyse=0x3:0x113 / me=umh / subme=9 / psy=1 / fade_compensate=0.00 / psy_rd=1.00:0.00 / mixed_ref=1 / me_range=24 / chroma_me=1 / trellis=2 / 8x8dct=1 / cqm=0 / deadzone=21,11 / fast_pskip=1 / chroma_qp_offset=-2 / threads=8 / lookahead_threads=1 / sliced_threads=0 / nr=0 / decimate=1 / interlaced=0 / bluray_compat=0 / constrained_intra=0 / fgo=0 / bframes=9 / b_pyramid=2 / b_adapt=2 / b_bias=0 / direct=1 / weightb=1 / open_gop=0 / weightp=2 / keyint=240 / keyint_min=24 / scenecut=40 / intra_refresh=0 / rc=crf / mbtree=0 / crf=18.5 / qcomp=0.72 / qpmin=0 / qpmax=69 / qpstep=4 / ip_ratio=1.40 / pb_ratio=1.30 / aq=1:0.85Дата кодирования : UTC 2017-10-08 17:26:16Дата пометки : UTC 2017-10-08 17:26:34Цветовой диапазон : LimitedОсновные цвета : BT.709Характеристики трансфера : BT.709Коэффициенты матрицы : BT.709

АудиоИдентификатор : 2Формат : AACФормат/Информация : Advanced Audio CodecПрофиль формата : LCИдентификатор кодека : 40Продолжительность : 24 м. 0 с.Вид битрейта : ПеременныйБитрейт : 192 Кбит/секМаксимальный битрейт : 237 Кбит/секКаналы : 2 каналаРасположение каналов : Front: L RЧастота : 48,0 КГцЧастота кадров : 46,875 кадров/сек (1024 spf)Метод сжатия : С потерямиРазмер потока : 32,7 Мбайт (6%)Язык : JapaneseДата кодирования : UTC 2017-10-08 03:00:06Дата пометки : UTC 2017-10-08 17:26:34
</div>
</div>
01. Phosphophyllite
02.


Трекер:  [ 09-Окт-2017 18:01 ]

  

Скачать .torrent

Размер .torrent файла 1 KB


Размер: 585 MB
Хэш (hash) релиза: b58d98b7c64018d122fb5a306ee302657a9d0528
Подписка на обновления:

Еще никто не оставлял запись к записи скачать торрент Страна самоцветов Houseki no Kuni . Будь первым!

!Обратная связь