Скачать через торрент Под огнём Фильм бесплатно в хорошем качестве torrent

Скачивайте на UnionPeer.org фильмы через торрент без регистрации. Новинки кино в хорошем качестве через торрент. На UnionPeer.org можно скачать через торрент фильмы 2014 и 2015 годов. Самые новые фильмы.

Скачать торрент Под огнём бесплатно через .torrent фильм мультфильм сериал

Если у вас наблюдаются проблемы со скриншотами, переходом по ссылками, скачиванием торрентов - проблемы в блокировщике рекламы AdBlock. #хорошегоДня!


Статистика раздачи
Размер:  360 MB   |    Зарегистрирован:  2 месяца 3 дня   |    .torrent скачан:  12 раз   |   
Раздают:  1  
   
Загрузка...
 
Автор Сообщение

Galfimbul

avatar Galfimbul


Под огнём

Дата/Год выпуска: 2017
Страна: Россия, Информационное агентство «News Front»
Жанр: Документальный, драма, война
Продолжительность: 00:25:50
Перевод: Не требуется
Русские субтитры: есть

Формат субтитров: hardsub (неотключаемые)
Режиссер: Никита Возмитель

Описание: Документальный фильм о конфликте на Донбассе. Авторская съемка военкора команды News Front Никиты Возмителя. Десятки свидетелей военных преступлений. Задокументированные факты нарушения режима прекращения огня. Уникальные кадры, на которых запечатлены те, кто ежедневно живут на грани. Люди, которые оказались в ловушке. Они живут вблизи передовой, каждый день для них – испытание. Документальный фильм, который рассказывает о разломленном Донбассе, о перемирии, которое хоронит гражданское население. О войне, которая продолжается.

качество: WEBRip
формат: MKV
Видео: AVC/H.264, 1280x720 (16:9), ~1819 kbps, 30.000 fps
Аудио: AAC, 126 kbps, 44.1 kHz, 2 ch
GeneralUnique ID : 188791476700459014052395211624915158208 (0x8E07EA7353B456DDAC7440003A3C44C0)Complete name : D:\Film\Под огнём.mkvFormat : MatroskaFormat version : Version 4 / Version 2File size : 360 MiBDuration : 25 min 50 sOverall bit rate : 1 950 kb/sEncoded date : UTC 2017-10-01 04:43:37Writing application : mkvmerge v16.0.0 ('Protest') 64-bitWriting library : libebml v1.3.5 + libmatroska v1.4.8Cover : YesAttachments : cover.png

VideoID : 1Format : AVCFormat/Info : Advanced Video CodecFormat profile : Main@L3.1Format settings, CABAC : YesFormat settings, RefFrames : 3 framesCodec ID : V_MPEG4/ISO/AVCDuration : 25 min 50 sBit rate : 1 819 kb/sWidth : 1 280 pixelsHeight : 720 pixelsDisplay aspect ratio : 16:9Frame rate mode : ConstantFrame rate : 30.000 FPSColor space : YUVChroma subsampling : 4:2:0Bit depth : 8 bitsScan type : ProgressiveBits/(Pixel*Frame) : 0.066Stream size : 336 MiB (93%)Language : RussianDefault : YesForced : NoColor range : LimitedColor primaries : BT.709Transfer characteristics : BT.709Matrix coefficients : BT.709

AudioID : 2Format : AACFormat/Info : Advanced Audio CodecFormat profile : LCCodec ID : A_AACDuration : 25 min 50 sBit rate : 126 kb/sChannel(s) : 2 channelsChannel positions : Front: L RSampling rate : 44.1 kHzFrame rate : 43.066 FPS (1024 SPF)Compression mode : LossyStream size : 23.2 MiB (6%)Language : RussianDefault : YesForced : No


Трекер:  [ 09-Окт-2017 18:42 ]

  

Скачать .torrent

Размер .torrent файла 28 KB


Размер: 360 MB
Хэш (hash) релиза: bfd04c606f67a08ba8725e0d759e557c4e29e7c2
Подписка на обновления:

Торренты, похожие на Под огнём скачать торрент

Форум Название Автор Размер S L Добавлен
Зарубежные фильмы до 2016 ·· Три часа на побег / В упор / Под огнем / A bout portant / Point Blank / À bout portant (Фред Кавайе / Fred Cavayé) [2010, Франция, боевик, триллер, криминал, BDRip 1080p] MVO (R5) + AVO (Гаврилов) + VO + Sub Rus, Ukr, Eng + Original Fre Galfimbul 1238794415611.54 GB 0 0 1471899475

23:57

22-Авг-16

Зарубежные фильмы до 2016 ·· Три часа на побег / В упор / Под огнем / A bout portant / Point Blank / À bout portant (Фред Кавайе / Fred Cavayé) [2010, Франция, боевик, триллер, криминал, BDRip 720p] MVO (R5) + AVO (Гаврилов) + VO + Sub Rus, Ukr, Eng + Original Fre Galfimbul 93417232518.7 GB 0 0 1471899469

23:57

22-Авг-16

Зарубежные фильмы до 2016 ·· Под огнем / Under Fire (Роджер Споттисвуд / Roger Spottiswoode) [1983, США, драма, военный, BDRemux 1080p] MVO (НТВ) + Dub (Советский) + Sub Eng + Original Eng Galfimbul 3331601642431.03 GB 0 0 1426511597

16:13

16-Мар-15

Зарубежные фильмы до 2016 ·· Под огнем / Point Blank (Мэтт Эрл Бисли / Matt Earl Beesley) [1998, США, боевик, драма, криминал, DVDRip-AVC] AVO Сербин + MVO Galfimbul 14458904151.35 GB 0 0 1348042800

11:20

19-Сен-12

Зарубежные фильмы до 2016 ·· В упор / Под огнем / Три часа на побег / À bout portant / Point Blank / A bout portant (Фред Кавайе / Fred Cavaye) [2010, боевик, триллер, криминал, BDRip] MVO (R5) + VO (DeMon) Galfimbul 15618293761.45 GB 0 0 1319727374

17:56

27-Окт-11

Зарубежные фильмы до 2016 ·· Застигнутый в перекрестном огне / Под перекрестным огнем / Caught in the Crossfire (Брайан А Миллер / Brian A Miller) [2010 г., США, драма, криминал, детектив, HDRip] Sub rus + original eng Alex0007 15615670811.45 GB 0 0 1295283340

19:55

17-Янв-11

Зарубежные фильмы до 2016 ·· Под перекрестным огнем / Crossfire Trail (Саймон Уинсер / Simon Wincer) [2001, Вестерн, DVDRip] Dub + Original Eng L 15550136321.45 GB 0 0 1347947580

08:53

18-Сен-12

Зарубежные фильмы до 2016 ·· Под горой / Хранители огня / Under the Mountain (Джонатан Кинг) [2009 г., фэнтези, приключения, HDRip] L 14947785081.39 GB 0 0 1297055328

08:08

7-Фев-11

Зарубежные фильмы до 2016 ·· Под перекрестным огнем / Caught in the Crossfire (Брайан А Миллер) [2010 г., драма, криминал, детектив, DVDRip] Nomak 734255104700 MB 0 0 1295553611

23:00

20-Янв-11

Зарубежные фильмы до 2016 ·· Под перекрестным огнем / Caught in the Crossfire (Брайан А Миллер) [2010 г., драма, криминал, детектив, HDRip] L 15613931521.45 GB 0 0 1295243651

08:54

17-Янв-11

Еще никто не оставлял запись к записи скачать торрент Под огнём . Будь первым!

!Обратная связь