Скачать через торрент Президентская книга тайн The Presidents Book of Secrets Фильм бесплатно в хорошем качестве torrent

Скачивайте на UnionPeer.org фильмы через торрент без регистрации. Новинки кино в хорошем качестве через торрент. На UnionPeer.org можно скачать через торрент фильмы 2014 и 2015 годов. Самые новые фильмы.

Скачать торрент Президентская книга тайн The Presidents Book of Secrets бесплатно через .torrent фильм мультфильм сериал

Если у вас наблюдаются проблемы со скриншотами, переходом по ссылками, скачиванием торрентов - проблемы в блокировщике рекламы AdBlock. #хорошегоДня!


Статистика раздачи
Размер:  1.05 GB   |    Зарегистрирован:  2 месяца 2 дня   |    .torrent скачан:  23 раза   |   
Раздают:  1  
   
Загрузка...
 
Автор Сообщение

Galfimbul

avatar Galfimbul


Президентская книга тайн / The President's Book of Secrets<var class="postImg postImgAligned img-right" title="https://images-na.ssl-images-amazon.com/images/I/51...ML.jpg">
</var>Год выпуска: 2010
Выпущено: США, Prometheus Entertainment for History, A&E Television Networks, LLC.
Режиссер: Кевин Бёрнс / Kevin Burns
Жанр: Документальный
Продолжительность: 01:22:35
Перевод: Профессиональный (двухголосый закадровый)

Описание: Президент США — это самый влиятельный человек мира. Каждый его публичный шаг документируется и анализируется. У него есть множество секретов, невероятное количество тайн. Есть президентские секреты, которые никогда не будут открыты. Но если есть тайны, то где они хранятся? В компьютере? В сейфе? В запертом чемоданчике? И с кем еще, если вообще с кем-либо, их делят?

Некоторые верят в существование книги, содержащей важнейшие секреты США. Книги, переходящей от президента к президенту в неразрывной цепи, простирающейся к появлению самой высокой должности в стране, чье содержание известно всего пяти живущим ныне людям. Но существует ли такая книга? Есть ли на самом деле Книга секретов президента? Розуэлльский инцидент, трагедия 11 сентября и убийство Кеннеди - кто знает правду об этих событиях? Крупнейшие тайны истории США еще ждут разгадки.

Качество: SATRip-AVC
Формат: MKV
Видео кодек: H.264
Аудио кодек: MP2
Видео: MPEG-4 AVC/x264, 720x576@1024x576 (16:9), 25 fps, 1425 Kbps
Аудио: Русский (MP2, 2 ch, 192 Кбит/с)
Аудио2: Английский (MP2, 2 ch, 192 Кбит/с)
Сэмпл
GeneralComplete name : Президентская книга тайн (2010).mkvFormat : MatroskaFormat version : Version 4 / Version 2File size : 1.05 GiBDuration : 1 h 22 minOverall bit rate : 1 812 kb/sEncoded date : UTC 2017-10-03 14:39:01Writing application : mkvmerge v16.0.0 ('Protest') 64-bitWriting library : libebml v1.3.5 + libmatroska v1.4.8

VideoID : 1Format : AVCFormat/Info : Advanced Video CodecFormat profile : High@L3Format settings, CABAC : YesFormat settings, RefFrames : 4 framesCodec ID : V_MPEG4/ISO/AVCDuration : 1 h 22 minBit rate : 1 425 kb/sWidth : 720 pixelsHeight : 576 pixelsDisplay aspect ratio : 16:9Original display aspect ratio : 16:9Frame rate mode : VariableFrame rate : 25.990 FPSOriginal frame rate : 25.000 FPSStandard : ComponentColor space : YUVChroma subsampling : 4:2:0Bit depth : 8 bitsScan type : ProgressiveBits/(Pixel*Frame) : 0.132Stream size : 842 MiB (79%)Default : YesForced : NoColor range : LimitedColor primaries : BT.601 PALTransfer characteristics : BT.470 System B, BT.470 System GMatrix coefficients : BT.470 System B, BT.470 System G

Audio #1ID : 2Format : MPEG AudioFormat version : Version 1Format profile : Layer 2Codec ID : A_MPEG/L2Codec ID/Hint : MP2Duration : 1 h 22 minBit rate mode : ConstantBit rate : 192 kb/sChannel(s) : 2 channelsSampling rate : 48.0 kHzFrame rate : 41.667 FPS (1152 SPF)Compression mode : LossyDelay relative to video : -11 msStream size : 113 MiB (11%)Language : RussianDefault : YesForced : No

Audio #2ID : 3Format : MPEG AudioFormat version : Version 1Format profile : Layer 2Codec ID : A_MPEG/L2Codec ID/Hint : MP2Duration : 1 h 22 minBit rate mode : ConstantBit rate : 192 kb/sChannel(s) : 2 channelsSampling rate : 48.0 kHzFrame rate : 41.665 FPS (1152 SPF)Compression mode : LossyDelay relative to video : -11 msStream size : 113 MiB (11%)Language : EnglishDefault : NoForced : No


Трекер:  [ 09-Окт-2017 19:12 ]

  

Скачать .torrent

Размер .torrent файла 11 KB


Размер: 1.05 GB
Хэш (hash) релиза: 11a6bd384235f27ccd2fce97283e0074ad9b9fe0
Подписка на обновления:

Еще никто не оставлял запись к записи скачать торрент Президентская книга тайн The Presidents Book of Secrets . Будь первым!

!Обратная связь