Скачать через торрент Защитники животных Фильм бесплатно в хорошем качестве torrent

Скачивайте на UnionPeer.org фильмы через торрент без регистрации. Новинки кино в хорошем качестве через торрент. На UnionPeer.org можно скачать через торрент фильмы 2014 и 2015 годов. Самые новые фильмы.

Скачать торрент Защитники животных бесплатно через .torrent фильм мультфильм сериал

Если у вас наблюдаются проблемы со скриншотами, переходом по ссылками, скачиванием торрентов - проблемы в блокировщике рекламы AdBlock. #хорошегоДня!


Статистика раздачи
Размер:  3.26 GB   |    Зарегистрирован:  2 месяца 2 дня   |    .torrent скачан:  2 раза   |   
Раздают:  1  
   
Загрузка...
 
Автор Сообщение

Galfimbul

avatar Galfimbul


Защитники животных (1 сезон, 6 серий из 6) / Guardians of rescue

Дата/Год выпуска: 2016
Страна: США
Жанр: Документальный
Продолжительность: ~ 00:44:00 серия
Перевод: Студийный (одноголосый закадровый)
Русские субтитры: нет

Режиссер: Сью Нортон / Sue Norton, Санди Халлер / Sandy Haller

Телеканал: Анимал планет
Описание: Что происходит, когда животные оказываются в беде, а обычные зоозащитные организации не могут их спасти? На помощь приходят "Защитники животных" - очень действенная, хотя и не столь известная в США организация добровольцев, готовая помочь животным в любое время и в любом месте. В неё входят очень разные люди, от отставных полицейских и морских пехотинцев до бывших заключенных и членов преступных группировок. Всех их объединяет любовь и сострадание к братьям нашим меньшим и горячая приверженность делу их спасения. От стерилизации уличных кошек и спасения щенков из опасных ситуаций до ремонта автофургона для ветерана армии и его собак и строительства новых вольеров для бездомных четвероногих - нет задачи, которая была бы не по силам "Защитникам животных"

Доп. информация: от 12 лет

Сэмпл: https://www.sendspace.com/file/zlt2ao

качество: SATRip
формат: AVI
Видео: XviD, 720х400 пикс, ~ 1600 Кбит/сек, 25,0 кадр/сек, 0.222 Бит/(Пиксели*Кадры)
Аудио: MP3, 160 Кбит/сек, 48,0 КГц, 2 канала
Сезон 1.
1-я серия Операция Перекупщик
Основатель организации "Защитники животных" Роб и волонтеры Марселин, Билл и Элли разбираются с перекупщиком щенков. Брайан и Фейс спасают собаку из захламленной мастерской.
2-я серия Злой царь
Роб с ветеринаром Марвином по прозвищу "Лось" проверяет информацию о собачьих боях; Брайан и Фейс пытаются помочь старой собаке на цепи; Дори помогает бездомному с кошками.
3-я серия Засада
Роб и Дори пытаются освободить собаку из цепи, Лось и Элли разбираются с жестоким собачником, а Брайан и Аманда знакомятся с бездомным ветераном и его псами.
4-я серия Спасительный дрон
Роб и Элли проверяют информацию о собаках, запертых на раскалённой крыше. Тем временем Брайан и Фейс помогают хозяйке собаки, которую провоцирует и изводит сосед.
5-я серия Одичавшие и голодные
Бездомный ветеран Джордж устраивает Дори сюрприз. Марселин и Элли проверяют сообщение о голодающих лошадях.
6-я серия Спасение после наводнения
Команда помогает спасти домашних животных после наводнения
для 1 серии, остальные серии аналогичныОбщееПолное имя : C:\фильмы\02 возможно для раздачи\Защитники животных (анимал планет) 6серий типа отдел по защите животных\Защитники животных 2016г (6серий из 6)\1серия Перекупщик.aviФормат : AVIФормат/Информация : Audio Video InterleaveРазмер файла : 559 МбайтПродолжительность : 44 м.Общий поток : 1770 Кбит/сек

ВидеоИдентификатор : 0Формат : MPEG-4 VisualПрофиль формата : Advanced Simple@L4Параметр BVOP формата : НетПараметр QPel формата : НетПараметр GMC формата : Без точки переходаПараметр матрицы формата : Default (H.263)Идентификатор кодека : XVIDИдентификатор кодека/Подсказка : XviDПродолжительность : 44 м.Битрейт : 1600 Кбит/секШирина : 720 пикселейВысота : 400 пикселейСоотношение сторон : 16:9Частота кадров : 25,000 кадров/секЦветовое пространство : YUVСубдискретизация насыщенности : 4:2:0Битовая глубина : 8 битТип развёртки : ПрогрессивнаяМетод сжатия : С потерямиБит/(Пиксели*Кадры) : 0.222Размер потока : 506 Мбайт (90%)

АудиоИдентификатор : 1Формат : MPEG AudioВерсия формата : Version 1Профиль формата : Layer 3Идентификатор кодека : 55Идентификатор кодека/Подсказка : MP3Продолжительность : 44 м.Продолжительность оригинала : 44 м.Вид битрейта : ПостоянныйБитрейт : 160 Кбит/секКаналы : 2 каналаЧастота : 48,0 КГцМетод сжатия : С потерямиРазмер потока : 50,6 Мбайт (9%)Выравнивание : Соединение по промежуткамПродолжительность промежутка : 40 мс. (1,00 видеокадр)
аналогичные раздачи: серия Animal Cops, например: Полиция Хьюстона / Феникса / Филадельфии / Южной Африки / Майами, отдел по защите животных / Шотландское общество защиты животных / Animal Cops / SSPCA [2003-2012, Документальный сериал] [214 выпусков] ...3205167
Телеканал: Анимал планет


Трекер:  [ 09-Окт-2017 19:42 ]

  

Скачать .torrent

Размер .torrent файла 17 KB


Размер: 3.26 GB
Хэш (hash) релиза: 49d97352fc67cbcc4c8ce2350d65f71e2d5d193b
Подписка на обновления:

Еще никто не оставлял запись к записи скачать торрент Защитники животных . Будь первым!

!Обратная связь