Скачать через торрент В песках поющие китята Kujira no Kora wa Sajou ni Utau бесплатно Аниме Все серии на русском torrent

Если у вас наблюдаются проблемы со скриншотами, переходом по ссылками, скачиванием торрентов - проблемы в блокировщике рекламы AdBlock. #хорошегоДня!


Статистика раздачи
Размер:  465 MB   |    Зарегистрирован:  2 месяца 3 дня   |    .torrent скачан:  8 раз   |   
Раздают:  1  
   
Загрузка...
 
Автор Сообщение

Galfimbul

avatar Galfimbul


В песках поющие китята
Kujira no Kora wa Sajou ni Utau
Children of the Whales
Whale Calves Sing on the Sand
Tales of the Wales Calves
クジラの子らは砂上に歌う

Страна: Япония
Год выпуска: 2017 г.
Жанр: фэнтези, мистика, драма, сёдзё
Тип: TV
Продолжительность: 12 эп. по ~24 мин.
Режиссер: Исигуро Кёхэй
Студия: Русские субтитры от AniPlay
Перевод: ShiYoruОписание: Однажды вся Земля превратилась в пустыню, покрылась полностью песком. И в этом песчаном царстве есть маленький дрейфующий островок под названием "Грязный Кит”. На островке живут люди, ни много ни мало 513 человек. Общество на этом острове довольно специфическое. Во-первых, они живут закрыто и никогда не вступают в контакт со внешним миром. Во-вторых, само общество разделено на две части, сосуществующие друг с другом: Шируши и Муины. Шируши обладают способностями, которые сокращают их жизни. Муины же ничем особым не владеют, зато и живут долго.

Юноша по имени Чакуро - сотрудник островного архива, и принадлежит к Шируши. Однажды, ему приходится обследовать заброшенный корабль, найденный островитянами. Там Чакуро ждёт неожиданная встреча, на корабле он сталкивается с незнакомой девушкой по имени Рикосу. Этот момент стал поистине легендарным, ведь выходец с "Грязного Кита” впервые повстречал чужака. Чем же обернётся их знакомство?Информационные ссылки: AniDB | MyAnimeList | World ArtКачество: HDTVRip
Тип релиза: Без хардсаба
Формат видео: MP4
Наличие линковки: Нет
Релиз/Автор рипа: Leopard-Raws
Видео: x264, 8 bit, 1280x720, ~2513 Kbps, 23.976 fps
Аудио (int): JAP, AAC, 48000 Hz, ~192 Kbps, 2 ch
Субтитры (ext): RUS, ASS
<div class="sp-wrap">
<div class="sp-head folded">MediaInfo</div>
<div class="sp-body">

Формат : MPEG-4Профиль формата : Base MediaИдентификатор кодека : isom (isom/avc1/iso6)Размер файла : 465 МбайтПродолжительность : 23 м. 59 с.Режим общего битрейта : ПеременныйОбщий поток : 2708 Кбит/секДата кодирования : UTC 2017-10-09 16:47:14Дата пометки : UTC 2017-10-09 16:47:14

ВидеоИдентификатор : 1Формат : AVCФормат/Информация : Advanced Video CodecПрофиль формата : High@L4.1Параметр CABAC формата : ДаПараметр ReFrames формата : 4 кадраИдентификатор кодека : avc1Идентификатор кодека/Информация : Advanced Video CodingПродолжительность : 23 м. 59 с.Битрейт : 2513 Кбит/секМаксимальный битрейт : 23,9 Мбит/секШирина : 1280 пикселейВысота : 720 пикселейСоотношение сторон : 16:9Режим частоты кадров : ПостоянныйЧастота кадров : 23,976 (24000/1001) кадра/секЦветовое пространство : YUVСубдискретизация насыщенности : 4:2:0Битовая глубина : 8 битТип развёртки : ПрогрессивнаяБит/(Пиксели*Кадры) : 0.114Размер потока : 431 Мбайт (93%)Заголовок : 264:fps=23.976@GPAC0.5.2-DEV-rev376-g5eeb74d-masterБиблиотека кодирования : x264 core 129 r2245+729M 1a52e03Настройки программы : cabac=1 / ref=4 / deblock=1:1:-1 / analyse=0x3:0x113 / me=umh / subme=9 / psy=1 / fade_compensate=0.00 / psy_rd=1.00:0.00 / mixed_ref=1 / me_range=24 / chroma_me=1 / trellis=2 / 8x8dct=1 / cqm=0 / deadzone=21,11 / fast_pskip=1 / chroma_qp_offset=-2 / threads=8 / lookahead_threads=1 / sliced_threads=0 / nr=0 / decimate=1 / interlaced=0 / bluray_compat=0 / constrained_intra=0 / fgo=0 / bframes=9 / b_pyramid=2 / b_adapt=2 / b_bias=0 / direct=1 / weightb=1 / open_gop=0 / weightp=2 / keyint=240 / keyint_min=24 / scenecut=40 / intra_refresh=0 / rc=crf / mbtree=0 / crf=18.5 / qcomp=0.72 / qpmin=0 / qpmax=69 / qpstep=4 / ip_ratio=1.40 / pb_ratio=1.30 / aq=1:0.85Дата кодирования : UTC 2017-10-09 16:47:14Дата пометки : UTC 2017-10-09 16:47:30Цветовой диапазон : LimitedОсновные цвета : BT.709Характеристики трансфера : BT.709Коэффициенты матрицы : BT.709

АудиоИдентификатор : 2Формат : AACФормат/Информация : Advanced Audio CodecПрофиль формата : LCИдентификатор кодека : 40Продолжительность : 23 м. 59 с.Вид битрейта : ПеременныйБитрейт : 192 Кбит/секМаксимальный битрейт : 227 Кбит/секКаналы : 2 каналаРасположение каналов : Front: L RЧастота : 48,0 КГцЧастота кадров : 46,875 кадров/сек (1024 spf)Метод сжатия : С потерямиРазмер потока : 32,9 Мбайт (7%)Язык : JapaneseДата кодирования : UTC 2017-10-09 06:15:21Дата пометки : UTC 2017-10-09 16:47:30
</div>
</div>
01.


Трекер:  [ 10-Окт-2017 01:01 ]

  

Скачать .torrent

Размер .torrent файла 1 KB


Размер: 465 MB
Хэш (hash) релиза: 5feedda76f04286f1639736e90a6128540d8b71e
Подписка на обновления:

Еще никто не оставлял запись к записи скачать торрент В песках поющие китята Kujira no Kora wa Sajou ni Utau . Будь первым!

!Обратная связь