Скачать через торрент Правда о Пёрл-Харборе Фильм бесплатно в хорошем качестве torrent

Скачивайте на UnionPeer.org фильмы через торрент без регистрации. Новинки кино в хорошем качестве через торрент. На UnionPeer.org можно скачать через торрент фильмы 2014 и 2015 годов. Самые новые фильмы.

Скачать торрент Правда о Пёрл-Харборе бесплатно через .torrent фильм мультфильм сериал

Если у вас наблюдаются проблемы со скриншотами, переходом по ссылками, скачиванием торрентов - проблемы в блокировщике рекламы AdBlock. #хорошегоДня!


Статистика раздачи
Размер:  1.23 GB   |    Зарегистрирован:  2 месяца 2 дня   |    .torrent скачан:  9 раз   |   
Раздают:  1  
   
Загрузка...
 
Автор Сообщение

Galfimbul

avatar Galfimbul


Правда о Пёрл-Харборе (1 серия из 2) / Pearl Harbor: The Truth (Обновляемая)

Год выпуска: 2016
Страна: Великобритания
Студия: BBC
Жанр: Документальный, война, история
Продолжительность: 1 х ~ 00:47:30
Перевод: Профессиональный (дублированный)
Режиссер: Кристофер Спенсер / Christopher Spencer

Описание: К 75-й годовщине внезапного нападения японцев на Пёрл-Харбор. Остается много вопросов, в частности, что Вашингтон знал о предстоящем нападении и какие действия предпринимал? Было перехвачено огромное количество радиограмм между Токио и его посольством. Почему о них не знал ни один высших офицеров, ответственных за защиту Оаху?
Захватывающий сериал из двух частей рассказывает о скандалах и козлах отпущения, связанных с ужасающей атакой на Пёрл-Харбор в 1941 году.

Доп. информация: Авторство релиза - alf62


Тип релиза: HDTVRip 720p
Контейнер: MKV

Видео: MPEG-4 AVC, ~3500 Кбит/с, 1280х720, (16:9), 25.000 fps
Аудио: Русский, AC3, 2 ch, 192 Кбит/сПравда о Пёрл-Харборе на rutracker.cr
<div class="sp-wrap">
<div class="sp-head folded">MediaInfo</div>
<div class="sp-body">

Правда.о.Пёрл-Харборе.(1.серия).2016.HDTVRip.720p.alf62.mkvФормат : MatroskaВерсия формата : Version 2Размер файла : 1,23 ГбайтПродолжительность : 47 м.Общий поток : 3693 Кбит/секДата кодирования : UTC 2017-10-10 01:30:38Программа кодирования : mkvmerge v7.8.0 ('River Man') 32bit built on Apr 3 2015 12:11:22Библиотека кодирования : libebml v1.3.1 + libmatroska v1.4.2

ВидеоИдентификатор : 1Формат : AVCФормат/Информация : Advanced Video CodecПрофиль формата : High@L4.1Параметр CABAC формата : ДаПараметр ReFrames формата : 16 кадровИдентификатор кодека : V_MPEG4/ISO/AVCПродолжительность : 47 м.Битрейт : 3500 Кбит/секШирина : 1280 пикселейВысота : 720 пикселейСоотношение сторон : 16:9Режим частоты кадров : ПостоянныйЧастота кадров : 25,000 кадров/секЦветовое пространство : YUVСубдискретизация насыщенности : 4:2:0Битовая глубина : 8 битТип развёртки : ПрогрессивнаяБит/(Пиксели*Кадры) : 0.152Размер потока : 1,14 Гбайт (93%)Библиотека кодирования : x264 core 146 r2538 121396cНастройки программы : cabac=1 / ref=16 / deblock=1:-1:-1 / analyse=0x3:0x113 / me=umh / subme=10 / psy=1 / psy_rd=1.00:0.00 / mixed_ref=1 / me_range=32 / chroma_me=1 / trellis=2 / 8x8dct=1 / cqm=0 / deadzone=21,11 / fast_pskip=0 / chroma_qp_offset=-2 / threads=6 / lookahead_threads=1 / sliced_threads=0 / nr=0 / decimate=0 / interlaced=0 / bluray_compat=0 / constrained_intra=0 / bframes=8 / b_pyramid=2 / b_adapt=2 / b_bias=0 / direct=3 / weightb=1 / open_gop=0 / weightp=2 / keyint=250 / keyint_min=25 / scenecut=40 / intra_refresh=0 / rc_lookahead=40 / rc=2pass / mbtree=1 / bitrate=3500 / ratetol=1.0 / qcomp=0.60 / qpmin=10 / qpmax=51 / qpstep=4 / cplxblur=20.0 / qblur=0.5 / vbv_maxrate=14000 / vbv_bufsize=14000 / nal_hrd=none / filler=0 / ip_ratio=1.40 / aq=1:0.80Default : ДаForced : Нет

АудиоИдентификатор : 2Формат : AC-3Формат/Информация : Audio Coding 3Расширение режима : CM (complete main)Параметр Endianness формата : BigИдентификатор кодека : A_AC3Продолжительность : 47 м.Вид битрейта : ПостоянныйБитрейт : 192 Кбит/секКаналы : 2 каналаРасположение каналов : Front: L RЧастота : 48,0 КГцБитовая глубина : 16 битМетод сжатия : С потерямиРазмер потока : 65,2 Мбайт (5%)Default : ДаForced : Нет
</div>
</div>

Трекер:  [ 10-Окт-2017 05:42 ]

  

Скачать .torrent

Размер .torrent файла 13 KB


Размер: 1.23 GB
Хэш (hash) релиза: c22ac2b178b396a4650ccd2955c4f38c1e71994d
Подписка на обновления:

Еще никто не оставлял запись к записи скачать торрент Правда о Пёрл-Харборе . Будь первым!

!Обратная связь