Скачать через торрент Вурдалаки Фильм бесплатно в хорошем качестве torrent

Скачивайте на UnionPeer.org фильмы через торрент без регистрации. Новинки кино в хорошем качестве через торрент. На UnionPeer.org можно скачать через торрент фильмы 2014 и 2015 годов. Самые новые фильмы.

Скачать торрент Вурдалаки бесплатно через .torrent фильм мультфильм сериал

Если у вас наблюдаются проблемы со скриншотами, переходом по ссылками, скачиванием торрентов - проблемы в блокировщике рекламы AdBlock. #хорошегоДня!


Статистика раздачи
Размер:  1.45 GB   |    Зарегистрирован:  2 месяца 3 дня   |    .torrent скачан:  104 раза   |   
Раздают:  1  
   
Загрузка...
 
Автор Сообщение

Galfimbul

avatar Galfimbul


Вурдалаки

Жанр: фэнтази, мистика, ужасы
Год выпуска: 2016
Продолжительность: 01:21:44

Режиссёр: Сергей Гинзбург

В ролях: Константин Крюков, Аглая Шиловская, Михаил Пореченков, Роман Мадянов, Андрей Руденский, Михаил Жигалов, Игорь Хрипунов, Константин Милованов

Описание: Россия, 18 век. На краю Руси, в Карпатских горах, стоит Спасский монастырь, куда был сослан духовник императрицы Елизаветы монах Лавр. Какие тайны он унес с собой из столичного Петербурга, никто не ведал. Да и край, в который он был сослан, издревле считался неспокойным, о нем слагали легенды и рассказывали их только шепотом. Говорили мол, что в тех краях живет нечистая сила, оставшаяся там еще со времен набегов турецких... Спустя годы за Лавром из Петербурга прибывает Андрей, крестник самой императрицы Елизаветы. В Карпатах Андрей сталкивается со странным, пугающим и необычным, что не в состоянии объяснить его рациональный разум. А еще он встречает настоящую любовь, ради которой вступает в схватку со сверхъестественным злом....

Сэмпл: http://multi-up.com/1171591

Качество видео: BDRip (Исходник BDRemux 1080p)
Формат видео: AVI

Видео: XviD 73, 720x304, (2,35:1), 23,976 fps, 2146 Кбит/с, 8 бит
Аудио: Русский (АС3, 6 ch (Front: L C R, Side: L R, LFE), 48,0 KHz, 384 Kbps)
Общее
Полное имя : D:\Видеофильмы\В и д е о\Вурдалаки (мистика, фэнтези, ужасы 2016 год).avi
Формат : AVI
Формат/Информация : Audio Video Interleave
Размер файла : 1,45 Гбайт
Продолжительность : 1 ч. 21 м.
Общий поток : 2539 Кбит/сек
Программа кодирования : VirtualDubMod 1.5.10.3 | www.virtualdub-fr.org || (build 2550/release)
Библиотека кодирования : VirtualDubMod build 2550/release

Видео
Идентификатор : 0
Формат : MPEG-4 Visual
Профиль формата : Advanced Simple@L5
Параметр BVOP формата : 2
Параметр QPel формата : Нет
Параметр GMC формата : Без точки перехода
Параметр матрицы формата : Выборочная
Идентификатор кодека : XVID
Идентификатор кодека/Подсказка : XviD
Продолжительность : 1 ч. 21 м.
Битрейт : 2146 Кбит/сек
Ширина : 720 пикселей
Высота : 304 пикселя
Соотношение сторон : 2,35:1
Частота кадров : 23,976 (23976/1000) кадра/сек
Цветовое пространство : YUV
Субдискретизация насыщенности : 4:2:0
Битовая глубина : 8 бит
Тип развёртки : Прогрессивная
Метод сжатия : С потерями
Бит/(Пиксели*Кадры) : 0.409
Размер потока : 1,23 Гбайт (85%)
Библиотека кодирования : XviD 73

Аудио
Идентификатор : 1
Формат : AC-3
Формат/Информация : Audio Coding 3
Расширение режима : CM (complete main)
Параметр Endianness формата : Big
Идентификатор кодека : 2000
Продолжительность : 1 ч. 21 м.
Вид битрейта : Постоянный
Битрейт : 384 Кбит/сек
Каналы : 6 каналов
Расположение каналов : Front: L C R, Side: L R, LFE
Частота : 48,0 КГц
Частота кадров : 31,250 кадров/сек (1536 spf)
Метод сжатия : С потерями
Размер потока : 225 Мбайт (15%)
Выравнивание : Разделение по промежуткам
Продолжительность промежутка : 42 мс. (1,00 видеокадр)
Время предзагрузки промежутка : 500 мс.
...5377028 <img class="smile" src="//static.t-ru.org/smiles/icon_arrow.gif" alt=""> http://screenshotcomparison.com/comparison/120238/picture:0


Трекер:  [ 10-Окт-2017 16:54 ]

  

Скачать .torrent

Размер .torrent файла 15 KB


Размер: 1.45 GB
Хэш (hash) релиза: 789bd5d33c641b06250e551b5799f09111fffbf5
Подписка на обновления:

Торренты, похожие на Вурдалаки скачать торрент

Форум Название Автор Размер S L Добавлен
Российские фильмы до 2016 ·· Вурдалаки (Сергей Гинзбург) [2016, Россия, триллер, фэнтези, Blu-ray disc 1080p] [GER] Galfimbul 1806471039916.82 GB 0 0 1510049397

13:09

7-Ноя-17

Российские фильмы до 2016 ·· Вурдалаки (Сергей Гинзбург) [2017, триллер, фэнтези, BDRip-AVC] Galfimbul 815959977778 MB 0 0 1507822395

18:33

12-Окт-17

Российские фильмы до 2016 ·· Вурдалаки (Сергей Гинзбург) [2016, Россия, триллер, фэнтези, WEB-DL 1080p] + Original Rus Galfimbul 29991868842.79 GB 0 0 1490291967

20:59

23-Мар-17

Российские фильмы до 2016 ·· Вурдалаки (Сергей Гинзбург) [2017, Триллер, фэнтези, WEB-DLRip] Galfimbul 15624642561.46 GB 0 0 1490287547

19:45

23-Мар-17

Российские фильмы до 2016 ·· Вурдалаки (Сергей Гинзбург) [2016, Мистика, фэнтези, WEB-DLRip] Galfimbul 15673213181.46 GB 0 0 1490232770

04:32

23-Мар-17

Российские фильмы 2016-2017 (Новинки русского кино) ·· Вурдалаки (Сергей Гинзбург) [2017 г., Триллер, WEB-DL 1080p] | iTunes Galfimbul 29991881222.79 GB 0 0 1490231824

04:17

23-Мар-17

Российские фильмы 2016-2017 (Новинки русского кино) ·· Вурдалаки (Сергей Гинзбург) [2017 г., Триллер, WEB-DLRip] | iTunes Galfimbul 14686044161.37 GB 0 0 1490231821

04:17

23-Мар-17

Российские фильмы 2016-2017 (Новинки русского кино) ·· Вурдалаки (Сергей Гинзбург) [2017, триллер, фэнтези, CAMRip] Galfimbul 14676234241.37 GB 0 0 1488044037

20:33

25-Фев-17

Зарубежные фильмы до 2016 ·· Небольшое привидение: Вы знакомы с моим другом вурдалаком? / Mostly Ghostly: Have You Met My Ghoulfriend? (2014) BDRip 1080p Galfimbul 93431010708.7 GB 0 0 1464903676

00:41

3-Июн-16

Зарубежные фильмы до 2016 ·· Небольшое привидение: Вы знакомы с моим другом вурдалаком? / Mostly Ghostly: Have You Met My Ghoulfriend? (Питер Хьюит / Peter Hewitt) [2014, США, семейный, Blu-ray disc 1080p] [CEE] Dub + Sub Rus, Eng + Original Eng Galfimbul 2897626632126.99 GB 0 0 1459280048

22:34

29-Мар-16

Зарубежные фильмы до 2016 ·· Небольшое привидение: Вы знакомы с моим другом вурдалаком? / Mostly Ghostly: Have You Met My Ghoulfriend? (Питер Хьюит / Peter Hewitt) [2014, США, семейный, BDRip] Dub + Sub (Rus, Eng) + Original (Eng) Galfimbul 15669864381.46 GB 0 0 1459175263

17:27

28-Мар-16

Зарубежные фильмы до 2016 ·· Небольшое привидение: Вы знакомы с моим другом вурдалаком? / Mostly Ghostly: Have You Met My Ghoulfriend? (Питер Хьюит) [2014, комедия, семейный, HDRip] Чистый звук Galfimbul 14672732161.37 GB 0 0 1441802472

15:41

9-Сен-15

Зарубежные фильмы до 2016 ·· Снадобье вурдалака / SideFX (Патрик Джонсон / Patrick Johnson) [2005, США, ужасы, DVDRip] MVO Galfimbul 14684186201.37 GB 0 0 1428508096

18:48

8-Апр-15

Еще никто не оставлял запись к записи скачать торрент Вурдалаки . Будь первым!

!Обратная связь