Скачать через торрент Скрытые следы Фильм бесплатно в хорошем качестве torrent

Скачивайте на UnionPeer.org фильмы через торрент без регистрации. Новинки кино в хорошем качестве через торрент. На UnionPeer.org можно скачать через торрент фильмы 2014 и 2015 годов. Самые новые фильмы.

Скачать торрент Скрытые следы бесплатно через .torrent фильм мультфильм сериал

Если у вас наблюдаются проблемы со скриншотами, переходом по ссылками, скачиванием торрентов - проблемы в блокировщике рекламы AdBlock. #хорошегоДня!


Статистика раздачи
Размер:  3.02 GB   |    Зарегистрирован:  2 месяца 2 дня   |    .torrent скачан:  39 раз   |   
Раздают:  1  
   
Загрузка...
 
Автор Сообщение

Galfimbul

avatar Galfimbul


Скрытые следы (4 серии из 6) / Hidden Traces

Дата/Год выпуска: 2014-2016
Страна: Франция, Docland Yard/ Gedeon Programmes
Жанр: Документальный, война, история
Продолжительность: 4 х ~ 00:51:15
Перевод: Профессиональный (дублированный)
Телеканал: Viasat History HD

Описание: Новые археологические находки, интервью с экспертами, компьютерные эффекты и 3D-реконструкция переплетаются в этом сериале, который расскажет о самых символичных эпизодах войн. Каждое поле битвы становится открытой книгой, раскрывающей неожиданные элементы и детали, открывающие новый взгляд на военные конфликты и их контекст.

Доп. информация: Авторство релиза - alf62


качество: HDTVRip
формат: AVI
Видео: 720x400 (1.80:1), 25 fps, XviD build 73 ~1899 kbps avg, 0.26 bit/pixel
Аудио: 48 kHz, AC3 Dolby Digital, 2/0 (L,R) ch, ~192.00 kbps avg
1. День «Д» / D-Day: Hidden Traces (2014)

2. 1914-1918. Первая мировая война / WWI (2014)
11 ноября 1918 года Первая мировая война подошла к концу, собрав ужасную жатву. Это был конфликт, подобного которому человечество еще не видело.
Cолдаты по меньшей мере двадцати стран были погружены в ад окопов под непрерывными артобстрелами. Столетие спустя археологи помогают выявить повседневную жизнь солдат, сражающихся на Восточном фронте Франции, и выявить неожиданные аспекты жизни на фронте.

3. Хиросима / Hiroshima (2015)

4. Ватерлоо / Waterloo (2015)
2 декабря 1804 года: Наполеон Бонапарт коронован как император Франции. Военный гений и строитель, он будет править, ни с кем не желая делиться своим положением.
Используя новые археологические находки, рассказы из первых уст о битве, экспертные интервью и компьютерные эффекты и 3D-анимацию, эта серия поможет нам понять динамические элементы стратегии и погоды, которые привели к историческому поражению Наполеона герцогом Веллингтоном на поле Ватерлоо.

5. Гора Гитлера / Hitler’s Mountain (2016)
Оберзальцберг был обычной баварской горой, пока Адольф Гитлер не увидел ее в 1923 году. Он сделал ее своим домом, своим убежищем, своим святилищем. В центре ультра-безопасного комплекса стоял его огромный дом: Бергхоф. И над этим, взгроможденным на скалистом пике, на высоте 1800 метров, доминировало знаменитое «Орлиное гнездо», символизирующее его жажду величия. Здесь, с видом на потрясающе красивый пейзаж, были задуманы самые мрачные идеи человечества.
Там, в Бергхофе, в 700 километрах от Берлина, нацистский лидер провел четверть своего правления, в окружении своих самых верных генералов и своей любовницы Евы Браун.
Хотя строения в основном разрушены, остатки огромного строительного комплекса все еще существуют.
Из рассказов очевидцев, исследователей, с помощью компьютерной графики, мы узнаем, как тихая маленькая гора превратилась в гигантский военно-политический комплекс.
Через 70 лет после окончания войны, что скрывают деревья Оберзальцберга? Что осталось от сети туннелей и растягивающейся бункерной системы, вырытой в горах?

6. Война во Вьетнаме / The Vietnam War: Hidden Traces (2016)
С помощью расследований на месте событий и благодаря свидетельствам выживших и историков, эта серия позволяет по-новому взглянуть на известные события.
Спустя сорок лет после окончания конфликта во Вьетнаме, все еще существуют неразорвавшиеся бомбы, тайные туннели и другие напоминания о долгой войне.
Скрытые.следы.(2.серия).1914-1918.Первая.мировая.война.2014.XviD.HDTVRip.alf62.aviФормат : AVIФормат/Информация : Audio Video InterleaveРазмер файла : 778 МбайтПродолжительность : 51 м.Общий поток : 2102 Кбит/секПрограмма кодирования : VirtualDubMod 1.5.10.3 | www.virtualdub-fr.org || (build 2550/release)Библиотека кодирования : VirtualDubMod build 2550/release

ВидеоИдентификатор : 0Формат : MPEG-4 VisualПрофиль формата : Advanced Simple@L5Параметр BVOP формата : 2Параметр QPel формата : НетПараметр GMC формата : Без точки переходаПараметр матрицы формата : Default (MPEG)Идентификатор кодека : XVIDИдентификатор кодека/Подсказка : XviDПродолжительность : 51 м.Битрейт : 1900 Кбит/секШирина : 720 пикселейВысота : 400 пикселейСоотношение сторон : 16:9Частота кадров : 25,000 кадров/секЦветовое пространство : YUVСубдискретизация насыщенности : 4:2:0Битовая глубина : 8 битТип развёртки : ПрогрессивнаяМетод сжатия : С потерямиБит/(Пиксели*Кадры) : 0.264Размер потока : 703 Мбайт (90%)Библиотека кодирования : XviD 73

АудиоИдентификатор : 1Формат : AC-3Формат/Информация : Audio Coding 3Расширение режима : CM (complete main)Параметр Endianness формата : BigИдентификатор кодека : 2000Продолжительность : 51 м.Вид битрейта : ПостоянныйБитрейт : 192 Кбит/секКаналы : 2 каналаРасположение каналов : Front: L RЧастота : 48,0 КГцБитовая глубина : 16 битМетод сжатия : С потерямиРазмер потока : 71,1 Мбайт (9%)Выравнивание : Разделение по промежуткамПродолжительность промежутка : 40 мс. (1,00 видеокадр)Время предзагрузки промежутка : 500 мс.


Трекер:  [ 10-Окт-2017 18:12 ]

  

Скачать .torrent

Размер .torrent файла 16 KB


Размер: 3.02 GB
Хэш (hash) релиза: 5bc4ed5f71595b53d741d519e92e529719f0cf13
Подписка на обновления:

Еще никто не оставлял запись к записи скачать торрент Скрытые следы . Будь первым!

!Обратная связь