Скачать через торрент Гимн Великому Городу Фильм бесплатно в хорошем качестве torrent

Скачивайте на UnionPeer.org фильмы через торрент без регистрации. Новинки кино в хорошем качестве через торрент. На UnionPeer.org можно скачать через торрент фильмы 2014 и 2015 годов. Самые новые фильмы.

Скачать торрент Гимн Великому Городу бесплатно через .torrent фильм мультфильм сериал

Если у вас наблюдаются проблемы со скриншотами, переходом по ссылками, скачиванием торрентов - проблемы в блокировщике рекламы AdBlock. #хорошегоДня!


Статистика раздачи
Размер:  897 MB   |    Зарегистрирован:  2 месяца 1 день   |    .torrent скачан:  4 раза   |   
Раздают:  1  
   
Загрузка...
 
Автор Сообщение

Galfimbul

avatar Galfimbul


Гимн Великому Городу

Дата/Год выпуска: 2015
Страна: Россия
Жанр: Документальный/Видовой
Продолжительность: 00:46:24
Перевод: Не требуется
Русские субтитры: нет

Оригинальная аудиодорожка: русский
Режиссер: Сергей Дебижев, Андрей Ефимов

Телеканал: Культура

Описание: Фильм представляет собой цельное художественное произведение с внутренней драматургией, невиданными по масштабу съемками и использованием самых последних достижений в области технологии изображения. / / Зритель погружен в жизнь города, чувствует биение его сердца. Представленные в картине редкие профессии, свойственные именно нашему городу, делают фильм увлекательным даже для знатоков Петербурга. Например, хранитель часов в Петропавловской крепости, лоцман, проводящий корабли по Неве, реставратор икон в Русском музее, балерина Михайловского театра, звонарь Владимирского собора, хранитель часов и музыкальных инструментов Эрмитажа, астроном Пулковской обсерватории. / Одна из главных ролей в фильме отводится аэросъемке. Масштаб города, его величественность уникальные высоты при съемках. Это совершенно другой, доселе невиданный взгляд, позволяющий по-новому увидеть Петербург. Необычные ракурсы, точки, разные состояния природы и освещения создают принципиально иное ощущение знакомого пространства.

качество: DVB
формат: TS
Видео: MPEG-4 AVC/ H.264 , 720x576 (4x3), 25fps, 2374 kbps
Аудио: MP2 , 48000Hz , stereo , 192kbps
GeneralID : 1 (0x1)Complete name : D:\Records\Гимн Великому Городу. док_муз_фильм.tsFormat : MPEG-TSFile size : 897 MiBDuration : 46mn 24sOverall bit rate mode : VariableOverall bit rate : 2 701 Kbps

VideoID : 68 (0x44)Menu ID : 1 (0x1)Format : AVCFormat/Info : Advanced Video CodecFormat profile : Main@L3.0Format settings, CABAC : YesFormat settings, ReFrames : 3 framesFormat settings, GOP : M=4, N=28Codec ID : 27Duration : 46mn 24sBit rate : 2 374 KbpsWidth : 720 pixelsHeight : 576 pixelsDisplay aspect ratio : 4:3Frame rate : 25.000 fpsStandard : ComponentColor space : YUVChroma subsampling : 4:2:0Bit depth : 8 bitsScan type : InterlacedScan order : Top Field FirstBits/(Pixel*Frame) : 0.229Stream size : 788 MiB (88%)Color primaries : BT.601 PALTransfer characteristics : BT.470 System B, BT.470 System GMatrix coefficients : BT.601

AudioID : 69 (0x45)Menu ID : 1 (0x1)Format : MPEG AudioFormat version : Version 1Format profile : Layer 2Codec ID : 3Duration : 46mn 24sBit rate mode : ConstantBit rate : 192 KbpsChannel(s) : 2 channelsSampling rate : 48.0 KHzCompression mode : LossyStream size : 63.7 MiB (7%)Language : English


Трекер:  [ 10-Окт-2017 18:12 ]

  

Скачать .torrent

Размер .torrent файла 18 KB


Размер: 897 MB
Хэш (hash) релиза: f58d7d818bcb69f4b5d878263e60ce789694a35e
Подписка на обновления:

Еще никто не оставлял запись к записи скачать торрент Гимн Великому Городу . Будь первым!

!Обратная связь