Скачать через торрент Мастера меча онлайн: Порядковый ранг Gekijouban Sword Art Online: Ordinal Scale бесплатно Аниме Все серии на русском torrent

Если у вас наблюдаются проблемы со скриншотами, переходом по ссылками, скачиванием торрентов - проблемы в блокировщике рекламы AdBlock. #хорошегоДня!


Статистика раздачи
Размер:  5.57 GB   |    Зарегистрирован:  2 месяца 2 дня   |    .torrent скачан:  22 раза   |   
Раздают:  1  
   
Загрузка...
 
Автор Сообщение

Galfimbul

avatar Galfimbul


Мастера меча онлайн: Порядковый ранг | Gekijouban Sword Art Online: Ordinal Scale
Год выпуска: 2017
Страна: Япония
Жанр: приключения, фэнтези
Тип: полнометражный фильм
Продолжительность: 120 мин.
Премьера: 18.02.2017Перевод:
• русские субтитры от 2nd Division
Перевод: DanielB, Чистяков Никита; Редактура: Tanegashi; Оформление: DanielB; QC: Vitaly
• английские + японские субтитрыРежиссер: Ито Томохико
Автор оригинала: Кавахара Рэки
Студия: Описание: Продолжение аниме-сериала «Мастера Меча Онлайн II».
2026 год, на смену «Амусферы» приходит «Augma» — устройство расширенной реальности, которая вместо функции «полного погружения», использует дополненную реальность, что делает процесс использования устройства безопаснее и удобнее. Благодаря этому новое устройство расширенной реальности получило большую популярность, а вместе с ней и «Ordinal Scale» — ARMMORPG, разработанная специально для «Augma», особенностью которой является OS — игровая функция, при которой все игроки получают ранг, основанный на их порядковом номере. Как и ожидалось, Кирито с друзьями начинают играть в «Ordinal Scale», но вскоре они узнают, что «Порядковый ранг» — это вовсе не веселье и игры...Информационные ссылки: AniDB || World Art || MALКачество: BDRip
Энкод: Beatrice-Raws | Jensen
Тип видео: без хардсаба, без линковки
Формат: MKV
Видео: x264 (Hi10p) | 1280x720 | ~5 210 Kbps | 23.976 fps
Аудио Jap: FLAC | 48 kHz | 2.0 (Front: L R) | ~1400 kbps
<div class="sp-wrap">
<div class="sp-head folded">Bomuto</div>
<div class="sp-body">Bomuto - лучшее качество видео

Данная раздача


В той раздаче
...5455587 - BDRip
...5458484http://rutracker.org/forum/viewtopic.php?t=5459746 - 720p
...5458554</div>
</div>
General
Unique ID : 178941907728592926265970244818588148873 (0x869EF5350108DA93AB546EC3FA602489)
Complete name : [Beatrice-Raws] Sword Art Online Ordinal Scale [BDRip 1280x720 x264 FLAC]\[Beatrice-Raws] Sword Art Online Ordinal Scale [BDRip 1280x720 x264 FLAC].mkv
Format : Matroska
Format version : Version 4 / Version 2
File size : 5.57 GiB
Duration : 2 h 0 min
Overall bit rate mode : Variable
Overall bit rate : 6 629 kb/s
Encoded date : UTC 2017-09-29 00:02:41
Writing application : mkvmerge v14.0.0 ('Flow') 64bit
Writing library : libebml v1.3.4 + libmatroska v1.4.5

Video
ID : 1
Format : AVC
Format/Info : Advanced Video Codec
Format profile : High 10@L5
Format settings, CABAC : Yes
Format settings, RefFrames : 6 frames
Codec ID : V_MPEG4/ISO/AVC
Duration : 2 h 0 min
Bit rate : 5 210 kb/s
Width : 1 280 pixels
Height : 720 pixels
Display aspect ratio : 16:9
Frame rate mode : Constant
Frame rate : 23.976 (24000/1001) FPS
Color space : YUV
Chroma subsampling : 4:2:0
Bit depth : 10 bits
Scan type : Progressive
Bits/(Pixel*Frame) : 0.236
Stream size : 4.37 GiB (79%)
Title : BDrip by Jensen
Writing library : x264 core 148 r2597M e86f3a1 (DJATOM's build)
Encoding settings : cabac=1 / ref=6 / deblock=1:1:-1 / analyse=0x3:0x113 / me=umh / subme=9 / psy=1 / fade_compensate=0.00 / psy_rd=1.00:0.00 / mixed_ref=1 / me_range=32 / chroma_me=1 / trellis=2 / 8x8dct=1 / cqm=0 / deadzone=21,11 / fast_pskip=1 / chroma_qp_offset=-2 / threads=22 / lookahead_threads=3 / sliced_threads=0 / nr=0 / decimate=1 / interlaced=0 / bluray_compat=0 / constrained_intra=0 / bframes=9 / b_pyramid=2 / b_adapt=2 / b_bias=0 / direct=1 / weightb=1 / open_gop=0 / weightp=2 / keyint=240 / keyint_min=23 / scenecut=40 / intra_refresh=0 / rc=crf / mbtree=0 / crf=14.0000 / qcomp=0.72 / qpmin=0 / qpmax=81 / qpstep=4 / ip_ratio=1.40 / pb_ratio=1.30 / aq=1:0.85
Language : Japanese
Default : Yes
Forced : No
Color range : Limited
Color primaries : BT.709
Transfer characteristics : BT.709
Matrix coefficients : BT.709

Audio
ID : 2
Format : FLAC
Format/Info : Free Lossless Audio Codec
Codec ID : A_FLAC
Duration : 2 h 0 min
Bit rate mode : Variable
Bit rate : 1 391 kb/s
Channel(s) : 2 channels
Channel positions : Front: L R
Sampling rate : 48.0 kHz
Frame rate : 11.719 FPS (4096 SPF)
Bit depth : 24 bits
Stream size : 1.17 GiB (21%)
Writing library : libFLAC 1.3.1 (UTC 2014-11-25)
Language : Japanese
Default : Yes
Forced : No

Text #1
ID : 3
Format : PGS
Muxing mode : zlib
Codec ID : S_HDMV/PGS
Codec ID/Info : Picture based subtitle format used on BDs/HD-DVDs
Duration : 1 h 59 min
Bit rate : 37.1 kb/s
Count of elements : 2625
Stream size : 31.6 MiB (1%)
Title : Eng
Language : English
Default : No
Forced : No

Text #2
ID : 4
Format : PGS
Muxing mode : zlib
Codec ID : S_HDMV/PGS
Codec ID/Info : Picture based subtitle format used on BDs/HD-DVDs
Duration : 1 h 59 min
Bit rate : 38.6 kb/s
Count of elements : 3506
Stream size : 32.9 MiB (1%)
Title : Jpn
Language : Japanese
Default : No
Forced : No

Menu
00:00:00.000 : en:Avant
00:04:06.246 : en:Part A
00:11:04.664 : en:Part B
00:19:37.134 : en:Part C
00:25:59.307 : en:Part D
00:32:03.004 : en:Part E
00:38:33.728 : en:Part F
00:42:36.887 : en:Part G
00:45:19.842 : en:Part H
00:51:59.991 : en:Part I
00:55:47.344 : en:Part J
01:02:52.518 : en:Part K
01:09:04.723 : en:Part L
01:19:41.401 : en:Part M
01:23:58.366 : en:Part N
01:26:41.029 : en:Part O
01:33:49.665 : en:Part P
01:39:29.964 : en:Part Q
01:46:47.234 : en:Part R
01:50:46.681 : en:Part S
01:54:33.533 : en:ED
01:59:13.646 : en:Part T


Трекер:  [ 10-Окт-2017 20:01 ]

  

Скачать .torrent

Размер .torrent файла 16 KB


Размер: 5.57 GB
Хэш (hash) релиза: aedc46f34c9e925924861c2f828848b6777b7d48
Подписка на обновления:

Торренты, похожие на Мастера меча онлайн: Порядковый ранг Gekijouban Sword Art Online: Ordinal Scale скачать торрент

Форум Название Автор Размер S L Добавлен
Аниме | Rips ·· Мастера меча онлайн: Порядковый ранг / Gekijouban Sword Art Online: Ordinal Scale [Movie] [Без хардсаба] [RUS(ext), JAP+SUB] [2017, фантастика, приключения, BDRip] [1080p] Galfimbul 93749719418.73 GB 0 0 1507116687

14:31

4-Окт-17

Аниме | HD Rips ·· Мастера меча онлайн: Порядковый ранг | Gekijouban Sword Art Online: Ordinal Scale [Movie] [без хардсаба] [JAP+SUB] [2017, приключения, фэнтези, BDRip] [1080p] Galfimbul 1693031333615.77 GB 0 0 1506762137

12:02

30-Сен-17

Аниме | Rips ·· Мастера меча онлайн: Порядковый ранг / Gekijouban Sword Art Online: Ordinal Scale [Movie] [Полухардсаб] [RUS(int), JAP+SUB] [2017, фантастика, приключения, BDRip] [HWP] Galfimbul 21462177122 GB 0 0 1506612670

18:31

28-Сен-17

Аниме | HD Rips ·· Мастера меча онлайн: Порядковый ранг / Gekijouban Sword Art Online: Ordinal Scale [Movie] [Без хардсаба] [JAP+SUB] [2017, фэнтези, романтика, BDRip] [1080p] Galfimbul 85007301977.92 GB 0 0 1506481498

06:04

27-Сен-17

Аниме | HD Rips ·· Мастера меча онлайн: Порядковый ранг / Gekijouban Sword Art Online: Ordinal Scale [Movie] [без хардсаба] [JAP+SUB] [2017, фэнтези, романтика, BDRemux] [1080p] Galfimbul 3764519511935.06 GB 0 0 1506457921

23:32

26-Сен-17

Аниме | HD Rips ·· Мастера меча онлайн: Порядковый ранг / Gekijouban Sword Art Online: Ordinal Scale [Movie] [Без хардсаба] [JAP+SUB] [2017, фэнтези, романтика, BDRip] [720p] Galfimbul 24274604222.26 GB 0 0 1506456238

23:03

26-Сен-17

Еще никто не оставлял запись к записи скачать торрент Мастера меча онлайн: Порядковый ранг Gekijouban Sword Art Online: Ordinal Scale . Будь первым!

!Обратная связь