-: Spider-Man: Homecoming torrent

, , - AdBlock. #!


4.52 GB   |    :  2 6    |    .torrent :  31    |   
1  
   
...
 

Galfimbul

avatar Galfimbul


-: / Spider-Man: Homecoming
Homework can wait. The city can't

7.080 / 10 8.00 / 10
: 2017
:
: , ,
: 02:13:28

: (iTunes)
:
C: , , ,
:
: . , ,
: , ,
:
:
: , ,
: ,
: , ., , , , , , , ,

: $175 000 000
: $333 125 680
: + $546 010 422 = $879 136 102
: $17 154 063

: 28 2017
(): 6 2017, WDSSPR

: , . - - . , , , . : BDRemux (BlueBird)
: BDRip
: HD (720p)
: M4V
: H.264, 1280x544, 2.35:1, 3 500 Kbps, 23.976 (24000/1001) fps

1: / (iTunes), AAC / 2.0 / 160 Kbps / 48.0 KHz
2: / , AAC / 2.0 / 160 Kbps / 48.0 KHz
3: / (iTunes), AC-3 / 5.1 / 384 Kbps / 48.0 KHz
4: / , AC-3 / 5.1 / 640 Kbps / 48.0 KHz

1:
2:
3:
4:
Sort Name: Spider-Man: Homecoming
XID: Apple:vendor_id:2017-690593
contentID: 1243195844
Screenwriters: . , ,
Producers: , ,
Director:
Cast: , ., , , , , , , ,
Studio: Columbia Pictures
Rating Annotation: Rated PG-13 for sci-fi action violence, some language and brief suggestive comments.
Rating: 4
Long Description: , . - - . , , , .
Description: , . -
Release Date: 2017-06-28T08:00:00Z
Genre: Action & Adventure
Artist: Jon Watts
Name: Spider-Man: Homecoming
General
Complete name : /Users/imac/HandBrake/Spider-Man- Homecoming (720p HD).m4v
Format : MPEG-4
Codec ID : M4V (M4V /M4A /mp42/isom)
File size : 4.52 GiB
Duration : 2h 13mn
Overall bit rate mode : Variable
Overall bit rate : 4 851 Kbps
Movie name : Spider-Man: Homecoming
Performer : Jon Watts
Director :
Actor : / . / / / / / / / /
Screenplay by : . / /
Producer : / /
Production studio : Columbia Pictures
Genre : Action & Adventure
ContentType : Short Film
Description : , . -
Recorded date : UTC 2017-06-28 08:00:00
Encoded date : UTC 2017-10-10 17:02:12
Tagged date : UTC 2017-10-10 17:05:55
Cover : Yes
Rating : None
Title/Sort : Spider-Man: Homecoming
LongDescription : , . - - . , , , .
HDVideo : Yes
AppleStoreCatalogID : 1243195844
Vendor : Apple:vendor_id:2017-690593
ContentRating : mpaa|PG-13|300|Rated PG-13 for sci-fi action violence, some language and brief suggestive comments.

Video #1
ID : 1
Format : AVC
Format/Info : Advanced Video Codec
Format profile : High@L3.1
Format settings : 3 Ref Frames
Format settings, CABAC : No
Format settings, ReFrames : 3 frames
Codec ID : avc1
Codec ID/Info : Advanced Video Coding
Duration : 2h 13mn
Source duration : 2h 13mn
Bit rate : 3 500 Kbps
Width : 1 280 pixels
Height : 544 pixels
Display aspect ratio : 2.35:1
Frame rate mode : Variable
Frame rate : 23.976 (24000/1001) fps
Minimum frame rate : 23.974 fps
Maximum frame rate : 23.981 fps
Color space : YUV
Chroma subsampling : 4:2:0
Bit depth : 8 bits
Scan type : Progressive
Bits/(Pixel*Frame) : 0.210
Stream size : 3.26 GiB (72%)
Source stream size : 3.26 GiB (72%)
Title : Main Program
Writing library : x264 core 148 r2708 86b7198
Encoding settings : cabac=0 / ref=3 / deblock=1:-3:-3 / analyse=0x3:0x113 / me=umh / subme=9 / psy=1 / psy_rd=1.00:0.15 / mixed_ref=1 / me_range=32 / chroma_me=1 / trellis=0 / 8x8dct=1 / cqm=0 / deadzone=21,11 / fast_pskip=0 / chroma_qp_offset=-2 / threads=17 / lookahead_threads=1 / sliced_threads=0 / nr=0 / decimate=0 / interlaced=0 / bluray_compat=0 / constrained_intra=0 / bframes=3 / b_pyramid=0 / b_adapt=2 / b_bias=0 / direct=1 / weightb=0 / open_gop=0 / weightp=0 / keyint=240 / keyint_min=24 / scenecut=40 / intra_refresh=0 / rc_lookahead=40 / rc=2pass / mbtree=1 / bitrate=3500 / ratetol=1.0 / qcomp=0.65 / qpmin=0 / qpmax=69 / qpstep=4 / cplxblur=20.0 / qblur=0.5 / vbv_maxrate=9500 / vbv_bufsize=9500 / nal_hrd=none / filler=0 / ip_ratio=1.40 / aq=1:1.10
Language : English
Encoded date : UTC 2017-10-10 17:02:12
Tagged date : UTC 2017-10-10 17:02:22
Color range : Limited
Color primaries : BT.709
Transfer characteristics : BT.709
Matrix coefficients : BT.709
Menus : 10,11

Video #2
ID : 11
Format : JPEG
Codec ID : jpeg
Duration : 2h 13mn
Bit rate mode : Variable
Bit rate : 2 900 bps
Width : 640 pixels
Height : 272 pixels
Display aspect ratio : 2.35:1
Frame rate mode : Variable
Frame rate : 0.010 fps
Minimum frame rate : 0.002 fps
Maximum frame rate : 0.077 fps
Color space : YUV
Chroma subsampling : 4:2:0
Bit depth : 8 bits
Compression mode : Lossy
Bits/(Pixel*Frame) : 1.666
Stream size : 2.87 MiB (0%)
Title : Chapter Images
Language : English
Default : No
Encoded date : UTC 2017-10-10 17:03:42
Tagged date : UTC 2017-10-10 17:03:44
Menu For : 1

Audio #1
ID : 2
Format : AAC
Format/Info : Advanced Audio Codec
Format profile : LC
Codec ID : mp4a-40-2
Duration : 2h 13mn
Bit rate mode : Variable
Bit rate : 157 Kbps
Maximum bit rate : 245 Kbps
Channel(s) : 2 channels
Channel positions : Front: L R
Sampling rate : 48.0 KHz
Frame rate : 46.875 fps (1024 SPF)
Compression mode : Lossy
Stream size : 150 MiB (3%)
Title : Russian Stereo
Language : Russian
Default : Yes
Alternate group : 1
Encoded date : UTC 2017-10-10 17:02:12
Tagged date : UTC 2017-10-10 17:03:25
Fallback From : 4
Subtitles : 6,8

Audio #2
ID : 3
Format : AAC
Format/Info : Advanced Audio Codec
Format profile : LC
Codec ID : mp4a-40-2
Duration : 2h 13mn
Bit rate mode : Variable
Bit rate : 159 Kbps
Maximum bit rate : 262 Kbps
Channel(s) : 2 channels
Channel positions : Front: L R
Sampling rate : 48.0 KHz
Frame rate : 46.875 fps (1024 SPF)
Compression mode : Lossy
Stream size : 151 MiB (3%)
Title : English Stereo
Language : English
Default : No
Alternate group : 1
Encoded date : UTC 2017-10-10 17:02:12
Tagged date : UTC 2017-10-10 17:03:25
Fallback From : 5
Subtitles : 7,9

Audio #3
ID : 4
Format : AC-3
Format/Info : Audio Coding 3
Format settings, Endianness : Big
Codec ID : ac-3
Duration : 2h 13mn
Bit rate mode : Constant
Bit rate : 384 Kbps
Channel(s) : 6 channels
Channel positions : Front: L C R, Side: L R, LFE
Sampling rate : 48.0 KHz
Frame rate : 31.250 fps (1536 SPF)
Bit depth : 16 bits
Compression mode : Lossy
Stream size : 367 MiB (8%)
Title : Russian DD 5.1
Language : Russian
Service kind : Complete Main
Default : Inherited From: 2
Alternate group : 1
Encoded date : UTC 2017-10-10 17:02:12
Tagged date : UTC 2017-10-10 17:03:25
Fallback To : 2
Subtitles : 6,8

Audio #4
ID : 5
Format : AC-3
Format/Info : Audio Coding 3
Format settings, Endianness : Big
Codec ID : ac-3
Duration : 2h 13mn
Bit rate mode : Constant
Bit rate : 640 Kbps
Channel(s) : 6 channels
Channel positions : Front: L C R, Side: L R, LFE
Sampling rate : 48.0 KHz
Frame rate : 31.250 fps (1536 SPF)
Bit depth : 16 bits
Compression mode : Lossy
Stream size : 611 MiB (13%)
Title : English DD 5.1
Language : English
Service kind : Complete Main
Default : No
Alternate group : 1
Encoded date : UTC 2017-10-10 17:02:12
Tagged date : UTC 2017-10-10 17:03:25
Fallback To : 3
Subtitles : 7,9

Text #1
ID : 6
Format : Timed Text
Muxing mode : sbtl
Codec ID : tx3g
Duration : 2h 13mn
Bit rate mode : Variable
Bit rate : 1 bps
Stream size : 831 Bytes (0%)
Title : Russian forced
Language : Russian
Default : Yes
Forced : Yes
Alternate group : 2
Encoded date : UTC 2017-10-10 17:02:12
Tagged date : UTC 2017-10-10 17:03:25
Subtitles For : 2,4
Full Alternative : 8

Text #2
ID : 7
Format : Timed Text
Muxing mode : sbtl
Codec ID : tx3g
Duration : 14mn 58s
Duration_FirstFrame : 14mn 51s
Duration_LastFrame : -2s 210ms
Bit rate mode : Variable
Bit rate : 0 bps
Stream size : 37.0 Bytes (0%)
Title : English forced
Language : English
Default : No
Forced : Yes
Alternate group : 2
Encoded date : UTC 2017-10-10 17:02:12
Tagged date : UTC 2017-10-10 17:02:27
Subtitles For : 3,5
Full Alternative : 9

Text #3
ID : 8
Format : Timed Text
Muxing mode : sbtl
Codec ID : tx3g
Duration : 2h 13mn
Bit rate mode : Variable
Bit rate : 113 bps
Stream size : 111 KiB (0%)
Title : Russian full
Language : Russian
Default : No
Forced : No
Alternate group : 2
Encoded date : UTC 2017-10-10 17:02:12
Tagged date : UTC 2017-10-10 17:03:25
Subtitles For : 2,4
Forced Alternative : 6

Text #4
ID : 9
Format : Timed Text
Muxing mode : sbtl
Codec ID : tx3g
Duration : 2h 12mn
Bit rate mode : Variable
Bit rate : 73 bps
Stream size : 71.5 KiB (0%)
Title : English full
Language : English
Default : No
Forced : No
Alternate group : 2
Encoded date : UTC 2017-10-10 17:02:12
Tagged date : UTC 2017-10-10 17:03:25
Subtitles For : 3,5
Forced Alternative : 7

Menu #1
00:00:00.000 : Chapter 1
00:00:48.840 : Chapter 2
00:01:28.046 : Chapter 3
00:02:03.206 : Chapter 4
00:02:26.647 : Chapter 5
00:05:35.043 : Chapter 6
00:06:03.446 : Chapter 7
00:06:29.306 : Chapter 8
00:08:58.163 : Chapter 9
00:10:57.740 : Chapter 10
00:12:25.912 : Chapter 11
00:13:49.162 : Chapter 12
00:17:48.150 : Chapter 13
00:20:50.791 : Chapter 14
00:21:22.072 : Chapter 15
00:22:01.028 : Chapter 16
00:24:23.587 : Chapter 17
00:25:52.176 : Chapter 18
00:26:44.561 : Chapter 19
00:28:12.941 : Chapter 20
00:29:11.708 : Chapter 21
00:32:25.277 : Chapter 22
00:33:03.231 : Chapter 23
00:34:14.344 : Chapter 24
00:34:35.198 : Chapter 25
00:37:10.937 : Chapter 26
00:38:13.833 : Chapter 27
00:40:53.284 : Chapter 28
00:41:52.218 : Chapter 29
00:45:03.034 : Chapter 30
00:46:25.324 : Chapter 31
00:48:24.485 : Chapter 32
00:51:06.313 : Chapter 33
00:52:41.367 : Chapter 34
00:55:30.285 : Chapter 35
00:58:41.560 : Chapter 36
00:59:33.653 : Chapter 37
01:00:02.432 : Chapter 38
01:00:15.487 : Chapter 39
01:00:29.793 : Chapter 40
01:00:56.278 : Chapter 41
01:01:19.384 : Chapter 42
01:03:25.552 : Chapter 43
01:05:08.321 : Chapter 44
01:06:21.978 : Chapter 45
01:06:47.086 : Chapter 46
01:07:23.331 : Chapter 47
01:10:11.040 : Chapter 48
01:11:20.777 : Chapter 49
01:12:53.286 : Chapter 50
01:14:51.988 : Chapter 51
01:15:45.833 : Chapter 52
01:16:56.320 : Chapter 53
01:18:42.134 : Chapter 54
01:19:12.248 : Chapter 55
01:20:22.234 : Chapter 56
01:21:00.773 : Chapter 57
01:23:33.800 : Chapter 58
01:27:21.319 : Chapter 59
01:28:49.950 : Chapter 60
01:32:38.219 : Chapter 61
01:33:23.765 : Chapter 62
01:34:00.093 : Chapter 63
01:35:21.049 : Chapter 64
01:36:48.886 : Chapter 65
01:38:46.295 : Chapter 66
01:40:48.042 : Chapter 67
01:42:08.122 : Chapter 68
01:43:39.880 : Chapter 69
01:45:07.051 : Chapter 70
01:46:23.878 : Chapter 71
01:47:19.224 : Chapter 72
01:48:07.523 : Chapter 73
01:49:07.207 : Chapter 74
01:50:14.733 : Chapter 75
01:52:24.696 : Chapter 76
01:54:01.293 : Chapter 77
01:56:02.038 : Chapter 78
01:58:04.119 : Chapter 79
01:59:28.912 : Chapter 80
02:00:14.624 : Chapter 81
02:01:11.973 : Chapter 82
02:02:21.918 : Chapter 83

Menu #2
ID : 10
Codec ID : text
Duration : 2h 13mn
Language : English
Encoded date : UTC 2017-10-10 17:03:25
Tagged date : UTC 2017-10-10 17:03:25
Menu For : 1
00:00:00.000 : Chapter 1
00:00:48.840 : Chapter 2
00:01:28.046 : Chapter 3
00:02:03.206 : Chapter 4
00:02:26.647 : Chapter 5
00:05:35.043 : Chapter 6
00:06:03.446 : Chapter 7
00:06:29.306 : Chapter 8
00:08:58.163 : Chapter 9
00:10:57.740 : Chapter 10
00:12:25.912 : Chapter 11
00:13:49.162 : Chapter 12
00:17:48.150 : Chapter 13
00:20:50.791 : Chapter 14
00:21:22.072 : Chapter 15
00:22:01.028 : Chapter 16
00:24:23.587 : Chapter 17
00:25:52.176 : Chapter 18
00:26:44.561 : Chapter 19
00:28:12.941 : Chapter 20
00:29:11.708 : Chapter 21
00:32:25.277 : Chapter 22
00:33:03.231 : Chapter 23
00:34:14.344 : Chapter 24
00:34:35.198 : Chapter 25
00:37:10.937 : Chapter 26
00:38:13.833 : Chapter 27
00:40:53.284 : Chapter 28
00:41:52.218 : Chapter 29
00:45:03.034 : Chapter 30
00:46:25.324 : Chapter 31
00:48:24.485 : Chapter 32
00:51:06.313 : Chapter 33
00:52:41.367 : Chapter 34
00:55:30.285 : Chapter 35
00:58:41.560 : Chapter 36
00:59:33.653 : Chapter 37
01:00:02.432 : Chapter 38
01:00:15.487 : Chapter 39
01:00:29.793 : Chapter 40
01:00:56.278 : Chapter 41
01:01:19.384 : Chapter 42
01:03:25.552 : Chapter 43
01:05:08.321 : Chapter 44
01:06:21.978 : Chapter 45
01:06:47.086 : Chapter 46
01:07:23.331 : Chapter 47
01:10:11.040 : Chapter 48
01:11:20.777 : Chapter 49
01:12:53.286 : Chapter 50
01:14:51.988 : Chapter 51
01:15:45.833 : Chapter 52
01:16:56.320 : Chapter 53
01:18:42.134 : Chapter 54
01:19:12.248 : Chapter 55
01:20:22.234 : Chapter 56
01:21:00.773 : Chapter 57
01:23:33.800 : Chapter 58
01:27:21.319 : Chapter 59
01:28:49.950 : Chapter 60
01:32:38.219 : Chapter 61
01:33:23.765 : Chapter 62
01:34:00.093 : Chapter 63
01:35:21.049 : Chapter 64
01:36:48.886 : Chapter 65
01:38:46.295 : Chapter 66
01:40:48.042 : Chapter 67
01:42:08.122 : Chapter 68
01:43:39.880 : Chapter 69
01:45:07.051 : Chapter 70
01:46:23.878 : Chapter 71
01:47:19.224 : Chapter 72
01:48:07.523 : Chapter 73
01:49:07.207 : Chapter 74
01:50:14.733 : Chapter 75
01:52:24.696 : Chapter 76
01:54:01.293 : Chapter 77
01:56:02.038 : Chapter 78
01:58:04.119 : Chapter 79
01:59:28.912 : Chapter 80
02:00:14.624 : Chapter 81
02:01:11.973 : Chapter 82
02:02:21.918 : Chapter 83
Bit rate mode : VBR
x264 [info]: frame I:2443 Avg QP:14.44 size: 97461
x264 [info]: frame P:76255 Avg QP:16.99 size: 30822
x264 [info]: frame B:113302 Avg QP:18.47 size: 8061
x264 [info]: consecutive B-frames: 5.6% 41.1% 18.2% 35.1%
x264 [info]: mb I I16..4: 7.0% 57.6% 35.4%
x264 [info]: mb P I16..4: 2.0% 6.9% 3.4% P16..4: 44.9% 25.7% 10.4% 0.0% 0.0% skip: 6.7%
x264 [info]: mb B I16..4: 0.2% 0.7% 0.4% B16..8: 43.6% 11.9% 1.7% direct: 3.7% skip:37.9% L0:39.7% L1:52.0% BI: 8.4%
x264 [info]: 8x8 transform intra:56.3% inter:43.9%
x264 [info]: coded y,uvDC,uvAC intra: 83.0% 84.9% 68.5% inter: 23.1% 25.4% 16.3%
x264 [info]: i16 v,h,dc,p: 26% 26% 8% 41%
x264 [info]: i8 v,h,dc,ddl,ddr,vr,hd,vl,hu: 9% 9% 5% 11% 15% 14% 14% 11% 11%
x264 [info]: i4 v,h,dc,ddl,ddr,vr,hd,vl,hu: 10% 12% 3% 12% 16% 14% 14% 10% 9%
x264 [info]: i8c dc,h,v,p: 50% 19% 19% 13%
x264 [info]: ref P L0: 72.0% 16.0% 12.1%
x264 [info]: ref B L0: 81.6% 18.4%
x264 [info]: kb/s:3498.30
Apple TV, iPad, iPhone, iPod Touch.
Windows VLC media player

 ·  , , FAQ-
:  [ 10--2017 20:42 ]

  

.torrent

.torrent 45 KB


: 4.52 GB
(hash) : 141234466918074ac7a17b3fb22f1cd918c7c9cc
··
...

-: Spider-Man: Homecoming . !

!