Скачать через торрент Торжественная церемония вручения премии ТЭФИ 2017.10.04 Фильм бесплатно в хорошем качестве torrent

Скачивайте на UnionPeer.org фильмы через торрент без регистрации. Новинки кино в хорошем качестве через торрент. На UnionPeer.org можно скачать через торрент фильмы 2014 и 2015 годов. Самые новые фильмы.

Скачать торрент Торжественная церемония вручения премии ТЭФИ 2017.10.04 бесплатно через .torrent фильм мультфильм сериал

Если у вас наблюдаются проблемы со скриншотами, переходом по ссылками, скачиванием торрентов - проблемы в блокировщике рекламы AdBlock. #хорошегоДня!


Статистика раздачи
Размер:  2.05 GB   |    Зарегистрирован:  2 месяца   |    .torrent скачан:  4 раза   |   
Раздают:  1  
   
Загрузка...
 
Автор Сообщение

Galfimbul

avatar Galfimbul


Торжественная церемония вручения премии ТЭФИ 2017.10.04

Год выпуска: 2017
Страна: Россия
Жанр: Документальный
Продолжительность: 02:13:00
Перевод: Не требуется
Описание: Третьего октября в столичном кинотеатре "Россия" прошла 21-я торжественная церемония награждения победителей ежегодной российской телевизионной премии ТЭФИ-2017. Лучшие представители отечественного телевидения боролись за статуэтку бронзового Орфея в 33 номинациях.

Первым победителем в категории "Вечерний прайм" стала передача Первого канала "Время", которую назвали лучшей в номинации "Информационная программа". Лучшим российским интервьюером по версии ТЭФИ признали Владимира Соловьёва. Вместе с ним на бронзовую статуэтку премии претендовали ведущая "России 24" Наиля Аскер-Заде и Юлия Меньшова, представляющая Первый канал.

Качество: HDTVRip
Разрешение видео/развертка: 720p
Контейнер: mkv
Видео кодек: H.264
Аудио кодек: AC3
Видео: H264; 1280x720 (16:9); 25.000 fps; ~2 000 kb/s
Аудио: AC3, 2 channels, 48000Hz, 192 Кбит/сек
GeneralUnique ID : 208521225463793359162330447051957272320 (0x9CDFBA2AD5A895498405A37E7DA4FF00)Complete name : I:\НТВ-HD\Торжественная церемония вручения премии ТЭФИ 2017.10.04.mkvFormat : MatroskaFormat version : Version 2File size : 2.05 GiBDuration : 2 h 13 minOverall bit rate : 2 194 kb/sEncoded date : UTC 2017-10-11 10:51:10Writing application : mkvmerge v7.8.0 ('River Man') 32bit built on Apr 3 2015 12:11:22Writing library : libebml v1.3.1 + libmatroska v1.4.2

VideoID : 1Format : AVCFormat/Info : Advanced Video CodecFormat profile : High@L4.1Format settings, CABAC : YesFormat settings, ReFrames : 4 framesCodec ID : V_MPEG4/ISO/AVCDuration : 2 h 13 minBit rate : 2 000 kb/sWidth : 1 280 pixelsHeight : 720 pixelsDisplay aspect ratio : 16:9Frame rate mode : ConstantFrame rate : 25.000 FPSColor space : YUVChroma subsampling : 4:2:0Bit depth : 8 bitsScan type : ProgressiveBits/(Pixel*Frame) : 0.087Stream size : 1.83 GiB (89%)Writing library : x264 core 146 r2538 121396cEncoding settings : cabac=1 / ref=3 / deblock=1:-1:-1 / analyse=0x3:0x113 / me=umh / subme=9 / psy=1 / psy_rd=1.00:0.15 / mixed_ref=1 / me_range=32 / chroma_me=1 / trellis=1 / 8x8dct=1 / cqm=0 / deadzone=21,11 / fast_pskip=1 / chroma_qp_offset=-3 / threads=6 / lookahead_threads=1 / sliced_threads=0 / nr=0 / decimate=1 / interlaced=0 / bluray_compat=0 / constrained_intra=0 / bframes=6 / b_pyramid=2 / b_adapt=1 / b_bias=0 / direct=3 / weightb=1 / open_gop=0 / weightp=2 / keyint=250 / keyint_min=25 / scenecut=40 / intra_refresh=0 / rc_lookahead=40 / rc=2pass / mbtree=1 / bitrate=2000 / ratetol=1.0 / qcomp=0.60 / qpmin=0 / qpmax=69 / qpstep=4 / cplxblur=20.0 / qblur=0.5 / ip_ratio=1.40 / aq=1:1.00Default : YesForced : No

AudioID : 2Format : AC-3Format/Info : Audio Coding 3Mode extension : CM (complete main)Format settings, Endianness : BigCodec ID : A_AC3Duration : 2 h 13 minBit rate mode : ConstantBit rate : 192 kb/sChannel(s) : 2 channelsChannel positions : Front: L RSampling rate : 48.0 kHzFrame rate : 31.250 FPS (1536 spf)Bit depth : 16 bitsCompression mode : LossyStream size : 184 MiB (9%)Default : YesForced : No
5


Трекер:  [ 11-Окт-2017 17:42 ]

  

Скачать .torrent

Размер .torrent файла 10 KB


Размер: 2.05 GB
Хэш (hash) релиза: 69643132ec311a0bb676fab4c039e5812561af1b
Подписка на обновления:

Торренты, похожие на Торжественная церемония вручения премии ТЭФИ 2017.10.04 скачать торрент

Форум Название Автор Размер S L Добавлен
Документальные фильмы и телепередачи ·· Торжественная церемония вручения премии ТЭФИ 2017.10.04 [2017, Документальный, HDTV 1080i] Galfimbul 1139116684410.61 GB 0 0 1507133594

19:13

4-Окт-17

Еще никто не оставлял запись к записи скачать торрент Торжественная церемония вручения премии ТЭФИ 2017.10.04 . Будь первым!

!Обратная связь