Скачать через торрент Яма. Наши дни Фильм бесплатно в хорошем качестве torrent

Скачивайте на UnionPeer.org фильмы через торрент без регистрации. Новинки кино в хорошем качестве через торрент. На UnionPeer.org можно скачать через торрент фильмы 2014 и 2015 годов. Самые новые фильмы.

Скачать торрент Яма. Наши дни бесплатно через .torrent фильм мультфильм сериал

Если у вас наблюдаются проблемы со скриншотами, переходом по ссылками, скачиванием торрентов - проблемы в блокировщике рекламы AdBlock. #хорошегоДня!


Статистика раздачи
Размер:  1.46 GB   |    Зарегистрирован:  2 месяца 2 дня   |    .torrent скачан:  88 раз   |   
Раздают:  1  
   
Загрузка...
 
Автор Сообщение

Galfimbul

avatar Galfimbul


Яма. Наши дни

Жанр: драма
Год выпуска: 2017
Продолжительность: 01:38:43
Субтитры: нетРежиссер:
Виталий МанюковВ ролях:
Алексей Дьячков, Андрей Лихачёв, Виталий Манюков, Георгий Олейник, Дина Белоусова, Дмитрий Ушаков, Евгений Шмелев, Екатерина Макарова, Екатерина Малахит, Игнат Костровский, Инна Королёва, Инна Лясковец, Каролина Русалеева, Кирилл Крошман-Климов, Ксения Худоба, Никита Бесогонов, Ольга Вяземская, Станислав Колесниченко, Юлия Ковалевская, Юрий ОгульникОписание:
Современное независимое кино из России, «Яма. Наши дни» посвящена теме, которую принято осторожно замалчивать – проституции и безвыходному положению женщин, оказавшихся в этой касте.Название отсылает зрителя к повести А.И. Куприна. Сама история также перекликается с мрачным сюжетом классика, однако действие фильма происходит в наши дни. Бордель в одном из центральных районов Москвы – квартира в жилом доме, в которой живут и работают проститутки. Фактически они себе не принадлежат – впервые продав свое тело за деньги, эти женщины догадываются – они никогда не будут помилованы общественным мнением, и, что ощущается гораздо более явно, они попали в кабалу владельцев борделя. Фильм рассказывает истории обитательниц публичного дома, раскрывая через них нравственную болезнь всего общества. Сможет ли настоящая, искренняя любовь победить мир лицемерия и круговой поруки?Качество видео: WEB-DLRip | Jama.Nashi.dni.2017.WEB-DLRip.1080p.
Формат видео: AVI

Видео: 720x400 (1.80:1), 25 fps, XviD build 73 ~1909 kbps avg, 0.27 bit/pixel
Аудио: 48 kHz, AC3 Dolby Digital, 2/0 (L,R) ch, ~192 kbpsСэмпл
Format                      : AVI
Format/Info                 : Audio Video Interleave
File size                   : 1.46 GiB
Duration                    : 1 h 38 min
Overall bit rate            : 2 112 kb/s
Writing application         : VirtualDubMod 1.5.10.3 | www.virtualdub-fr.org || (build 2550/release)
Writing library             : VirtualDubMod build 2550/release

Video
ID                          : 0
Format                      : MPEG-4 Visual
Format profile              : Advanced Simple@L5
Format settings             : BVOP1 / Custom Matrix
Format settings, BVOP       : 1
Format settings, QPel       : No
Format settings, GMC        : No warppoints
Format settings, Matrix     : Custom
Codec ID                    : XVID
Codec ID/Hint               : XviD
Duration                    : 1 h 38 min
Bit rate                    : 1 910 kb/s
Width                       : 720 pixels
Height                      : 400 pixels
Display aspect ratio        : 16:9
Frame rate                  : 25.000 FPS
Color space                 : YUV
Chroma subsampling          : 4:2:0
Bit depth                   : 8 bits
Scan type                   : Progressive
Compression mode            : Lossy
Bits/(Pixel*Frame)          : 0.265
Stream size                 : 1.32 GiB (90%)
Writing library             : XviD 73

Audio
ID                          : 1
Format                      : AC-3
Format/Info                 : Audio Coding 3
Format settings, Endianness : Big
Codec ID                    : 2000
Duration                    : 1 h 38 min
Bit rate mode               : Constant
Bit rate                    : 192 kb/s
Channel(s)                  : 2 channels
Channel positions           : Front: L R
Sampling rate               : 48.0 kHz
Frame rate                  : 31.250 FPS (1536 SPF)
Bit depth                   : 16 bits
Compression mode            : Lossy
Stream size                 : 136 MiB (9%)
Alignment                   : Split accross interleaves
Interleave, duration        : 40  ms (1.00 video frame)
Interleave, preload duratio : 500  ms
Service kind                : Complete Main


Трекер:  [ 11-Окт-2017 18:24 ]

  

Скачать .torrent

Размер .torrent файла 15 KB


Размер: 1.46 GB
Хэш (hash) релиза: ac2318ff2eb82d1b3d0aa4029d10a1e59db25b81
Подписка на обновления:

Торренты, похожие на Яма. Наши дни скачать торрент

Форум Название Автор Размер S L Добавлен
Российские фильмы 2016-2017 (Новинки русского кино) ·· Яма. Наши дни (Виталий Манюков) [2017, драма, WEB-DLRip] Galfimbul 15626622841.46 GB 1 73 1507922479

22:21

13-Окт-17

Российские фильмы до 2016 ·· Яма. Наши дни (Виталий Манюков) [2017, драма, WEB-DLRip-AVC] Galfimbul 781189544745 MB 2 0 1507899971

16:06

13-Окт-17

Российские фильмы 2016-2017 (Новинки русского кино) ·· Яма. Наши дни (Виталий Манюков) [2017 г., Драма, артхаус, WEB-DL 1080p] Galfimbul 39669091483.69 GB 2 0 1507715674

12:54

11-Окт-17

Еще никто не оставлял запись к записи скачать торрент Яма. Наши дни . Будь первым!

!Обратная связь