Скачать через торрент Фронт кровавой блокады 2 Kekkai Sensen & Beyond бесплатно Аниме Все серии на русском torrent

Если у вас наблюдаются проблемы со скриншотами, переходом по ссылками, скачиванием торрентов - проблемы в блокировщике рекламы AdBlock. #хорошегоДня!


Статистика раздачи
Размер:  337 MB   |    Зарегистрирован:  2 месяца 1 день   |    .torrent скачан:  9 раз   |   
Раздают:  1  
   
Загрузка...
 
Автор Сообщение

Galfimbul

avatar Galfimbul


Фронт кровавой блокады 2 / Kekkai Sensen & Beyond
Страна: Япония
Год выпуска: 2017
Жанр: приключения, фэнтези, комедия, сёнэн
Тип: TV
Продолжительность: 12 эп. по 25 мин.
Режиссер: Такаянаги Сигэхито
Студия: BonesПеревод: Garael [DeadLine Studio]
Озвучание: трёхголосое (муж./ муж./ жен.) от Soer & Constantine & MezIdA [DeadLine Studio]
Работа со звуком: Soer [DeadLine Studio]
Описание:
Привычная жизнь жителей Нью-Йорка завершилась в одно мгновение, а точнее за одну ночь. Нью-Йорк прекратил своё существование, и на его месте оказался мрачный город, покрытый туманом. Имя ему "Жребий Иерусалима”. Новый город связывает известную нам реальность, в которой живут обыкновенные люди, с незнакомым фантастическим миром, где обитают существа, которых мы могли бы увидеть только в фильмах. Всё происходящее в "Жребии Иерусалима” оказалось сложным для восприятия людей, и жить в этом городе способен далеко не каждый.
Никем не контролируемая сила всегда порождает хаос, так и случилось в новом таинственном городе. Чтобы сохранять баланс между добром и злом даже в таких условиях, была создана секретная организация "Либра”. Но люди вряд ли способны противостоять неведомым силам, поэтому в "Либре” состоят лишь обладатели суперспособностей. Но однажды в "Жребий Иерусалима” переезжает обычный парень по имени Леонард, который впоследствии становится членом этой секретной организации.Качество: WEBRip | Формат: .mkv | Рип: HorribleSubs
Видео: x264(8 bit.), 1280x720, 1776 Kbps, 23.976 fps
Звук (Russian): AC3, 192 kbps, 48.0 KHz, 2.0 ch | [MVO]
Субтитры (Russian): ass, встроенные | Надписи
Хардсаб: отсутствует
01. Lights, Camera, Action!
...5463515 - наличие озвучки
General
Unique ID : 198626804567558991995579400246491557183 (0x956E218DA31BF655803FCC107FF32D3F)
Complete name : D:\[DLS] Kekkai Sensen & Beyond [Soer & Constantine & MezIdA]\[DeadLine] Kekkai Sensen & Beyond - 01 [Soer & Constantine & MezIdA] [720p WEBRip].mkv
Format : Matroska
Format version : Version 4 / Version 2
File size : 337 MiB
Duration : 24 min 1 s
Overall bit rate : 1 963 kb/s
Encoded date : UTC 2017-10-11 17:00:21
Writing application : mkvmerge v7.6.0 ('Garden of Dreams') 64bit built on Feb 8 2015 13:04:34
Writing library : libebml v1.3.1 + libmatroska v1.4.2
Attachments : OpenSans-Semibold.ttf

Video
ID : 1
Format : AVC
Format/Info : Advanced Video Codec
Format profile : High@L4
Format settings, CABAC : Yes
Format settings, RefFrames : 6 frames
Codec ID : V_MPEG4/ISO/AVC
Duration : 24 min 0 s
Bit rate : 1 776 kb/s
Width : 1 280 pixels
Height : 720 pixels
Display aspect ratio : 16:9
Frame rate mode : Variable
Frame rate : 23.976 (23976/1000) FPS
Color space : YUV
Chroma subsampling : 4:2:0
Bit depth : 8 bits
Scan type : Progressive
Bits/(Pixel*Frame) : 0.080
Stream size : 304 MiB (90%)
Writing library : x264 core 120 r2120 0c7dab9
Encoding settings : cabac=1 / ref=6 / deblock=1:1:1 / analyse=0x3:0x113 / me=umh / subme=8 / psy=1 / psy_rd=0.40:0.00 / mixed_ref=1 / me_range=16 / chroma_me=1 / trellis=1 / 8x8dct=1 / cqm=0 / deadzone=21,11 / fast_pskip=1 / chroma_qp_offset=-2 / threads=4 / sliced_threads=0 / nr=0 / decimate=1 / interlaced=0 / bluray_compat=0 / constrained_intra=0 / bframes=3 / b_pyramid=2 / b_adapt=2 / b_bias=0 / direct=3 / weightb=1 / open_gop=0 / weightp=2 / keyint=250 / keyint_min=23 / scenecut=40 / intra_refresh=0 / rc_lookahead=50 / rc=2pass / mbtree=1 / bitrate=1776 / ratetol=1.0 / qcomp=0.60 / qpmin=0 / qpmax=69 / qpstep=4 / cplxblur=20.0 / qblur=0.5 / vbv_maxrate=3552 / vbv_bufsize=8880 / nal_hrd=none / ip_ratio=1.40 / aq=1:0.60
Default : Yes
Forced : Yes

Audio
ID : 2
Format : AC-3
Format/Info : Audio Coding 3
Format settings, Endianness : Big
Codec ID : A_AC3
Duration : 24 min 0 s
Bit rate mode : Constant
Bit rate : 192 kb/s
Channel(s) : 2 channels
Channel positions : Front: L R
Sampling rate : 48.0 kHz
Frame rate : 31.250 FPS (1536 SPF)
Bit depth : 16 bits
Compression mode : Lossy
Stream size : 33.0 MiB (10%)
Title : [Soer & Constantine & MezIdA] [Deadline Studio]
Language : Russian
Service kind : Complete Main
Default : Yes
Forced : Yes

Text
ID : 3
Format : ASS
Codec ID : S_TEXT/ASS
Codec ID/Info : Advanced Sub Station Alpha
Duration : 18 min 57 s
Bit rate : 3 b/s
Count of elements : 6
Compression mode : Lossless
Stream size : 434 Bytes (0%)
Title : Надписи
Language : Russian
Default : Yes
Forced : Yes


Трекер:  [ 11-Окт-2017 20:30 ]

  

Скачать .torrent

Размер .torrent файла 14 KB


Размер: 337 MB
Хэш (hash) релиза: 9e36fd8da5525efb2cd8ffb5843ecdced632204d
Подписка на обновления:

Торренты, похожие на Фронт кровавой блокады 2 Kekkai Sensen & Beyond скачать торрент

Форум Название Автор Размер S L Добавлен
Аниме | HD Rips ·· Фронт кровавой блокады (ТВ-2) / Kekkai Sensen & Beyond [TV] [01 из 12] [Без хардсаба] [JAP+SUB] [2017, приключения, фэнтези, комедия, сёнэн, HDTVRip] [720p] Galfimbul 427623681408 MB 0 0 1507449769

11:02

8-Окт-17

Еще никто не оставлял запись к записи скачать торрент Фронт кровавой блокады 2 Kekkai Sensen & Beyond . Будь первым!

!Обратная связь