Скачать через торрент Моя девушка - убеждённая извращенка-девственница Boku no Kanojo ga Majime Sugiru Shobitch na Ken бесплатно Аниме Все серии на русском torrent

Если у вас наблюдаются проблемы со скриншотами, переходом по ссылками, скачиванием торрентов - проблемы в блокировщике рекламы AdBlock. #хорошегоДня!


Статистика раздачи
Размер:  303 MB   |    Зарегистрирован:  2 месяца   |    .torrent скачан:  27 раз   |   
Раздают:  1  
   
Загрузка...
 
Автор Сообщение

Galfimbul

avatar Galfimbul


Моя девушка - убеждённая извращенка-девственница
Boku no Kanojo ga Majime Sugiru Shobitch na Ken
My Girlfriend is Shobitch
僕の彼女がマジメ過ぎるしょびっちな件

Страна: Япония
Год выпуска: 2017 г.
Жанр: комедия, романтика, школа, этти
Тип: TV
Продолжительность: 12 эп. по ~24 мин.
Режиссер: Нагаяма Нобуёси
Студия: Diomedea, Studio BlancРусские субтитры
Перевод: Dari EinhoОписание: Ни для кого не секрет, что парни-школьники частенько помешаны на половых отношениях, ввиду отсутствия таковых. Мыслишки о том, что может светить им на горизонте, так и норовят затмить их юные разумы и свербят в самые неподходящие для того моменты. Но предположим, что есть один парень, совершенно обыкновенный, любопытство к взрослым темам у него на среднем уровне. Вроде как небезразлично, ведь по возрасту положено уже интересоваться, но и до крайностей не доходит. Зовут нашего героя - Харука Шинозаки.

И, как назло, именно ему досталась девчонка, о которой любой озабоченный подросток может только мечтать. Акихо Косака - "комсомолка, спортсменка и просто красавица”. Она изо всех сил пытается стать идеальной девушкой для Харуки, читает кучу статей о межполовых отношениях, как в психологическом плане, так и в физическом. Она стала настоящей эксперткой в этой теме, её выдающимся знаниям мог бы позавидовать любой взрослый, и теперь Акихо готова исполнить любые фантазии своего молодого человека.Информационные ссылки: AniDB | MyAnimeList | World ArtКачество: HDTVRip
Тип релиза: Без хардсаба
Формат видео: MP4
Наличие линковки: Нет
Релиз/Автор рипа: Ohys-Raws
Видео: x264, 8 bit, 1280x720, ~1574 Kbps, 23.976 fps
Аудио (int): JAP, AAC, 48000 Hz, ~188 Kbps, 2 ch
Субтитры (ext): RUS, ASS
<div class="sp-wrap">
<div class="sp-head folded">MediaInfo</div>
<div class="sp-body">

Формат : MPEG-4Профиль формата : Base MediaИдентификатор кодека : isom (isom/avc1)Размер файла : 303 МбайтПродолжительность : 24 м. 0 с.Режим общего битрейта : ПеременныйОбщий поток : 1766 Кбит/секДата кодирования : UTC 2017-10-11 16:03:55Дата пометки : UTC 2017-10-11 16:03:55

ВидеоИдентификатор : 1Формат : AVCФормат/Информация : Advanced Video CodecПрофиль формата : Main@L4.1Параметр CABAC формата : ДаПараметр ReFrames формата : 4 кадраИдентификатор кодека : avc1Идентификатор кодека/Информация : Advanced Video CodingПродолжительность : 24 м. 0 с.Битрейт : 1574 Кбит/секМаксимальный битрейт : 7090 Кбит/секШирина : 1280 пикселейВысота : 720 пикселейСоотношение сторон : 16:9Режим частоты кадров : ПостоянныйЧастота кадров : 23,976 (24000/1001) кадра/секЦветовое пространство : YUVСубдискретизация насыщенности : 4:2:0Битовая глубина : 8 битТип развёртки : ПрогрессивнаяБит/(Пиксели*Кадры) : 0.071Размер потока : 270 Мбайт (89%)Библиотека кодирования : x264 core 152 r2851+58 429492e t_mod_Custom [8-bit@all X86_64]Настройки программы : cabac=1 / ref=3 / deblock=1:0:0 / analyse=0x1:0x111 / me=hex / subme=7 / psy=1 / fade_compensate=0.00 / psy_rd=1.00:0.00 / mixed_ref=1 / me_range=16 / chroma_me=1 / trellis=1 / 8x8dct=0 / cqm=0 / deadzone=21,11 / fast_pskip=1 / chroma_qp_offset=-2 / threads=18 / lookahead_threads=3 / sliced_threads=0 / nr=0 / decimate=1 / interlaced=0 / bluray_compat=0 / constrained_intra=0 / fgo=0 / bframes=3 / b_pyramid=2 / b_adapt=1 / b_bias=0 / direct=1 / weightb=1 / open_gop=0 / weightp=2 / keyint=240 / keyint_min=1 / scenecut=40 / intra_refresh=0 / rc_lookahead=40 / rc=crf / mbtree=1 / crf=20.0000 / qcomp=0.60 / qpmin=0:0:0 / qpmax=69:69:69 / qpstep=4 / ip_ratio=1.40 / aq=1:1.50 / aq-sensitivity=10.00 / aq-factor=1.00:1.00:1.00 / aq2=0 / aq3=0Дата кодирования : UTC 2017-10-11 16:03:55Дата пометки : UTC 2017-10-11 16:03:58Цветовой диапазон : LimitedОсновные цвета : BT.709Характеристики трансфера : BT.709Коэффициенты матрицы : BT.709

АудиоИдентификатор : 2Формат : AACФормат/Информация : Advanced Audio CodecПрофиль формата : LCИдентификатор кодека : 40Продолжительность : 24 м. 0 с.Вид битрейта : ПеременныйБитрейт : 188 Кбит/секМаксимальный битрейт : 246 Кбит/секКаналы : 2 каналаРасположение каналов : Front: L RЧастота : 48,0 КГцЧастота кадров : 46,875 кадров/сек (1024 spf)Метод сжатия : С потерямиРазмер потока : 32,2 Мбайт (11%)Язык : JapaneseДата кодирования : UTC 2017-10-11 15:57:43Дата пометки : UTC 2017-10-11 16:03:58
</div>
</div>
01.
02.


Трекер:  [ 12-Окт-2017 07:01 ]

  

Скачать .torrent

Размер .torrent файла 1 KB


Размер: 303 MB
Хэш (hash) релиза: f3d3d0acde9de6d6581eb4adae0d6c72a365ae62
Подписка на обновления:

Торренты, похожие на Моя девушка - убеждённая извращенка-девственница Boku no Kanojo ga Majime Sugiru Shobitch na Ken скачать торрент

Форум Название Автор Размер S L Добавлен
Аниме | Rips ·· Моя девушка - убежденная извращенка девственница / Boku no Kanojo ga Majime Sugiru Shobitch na Ken / My Girlfriend is Shobitch/ [TV] [1 из 12] [Без хардсаба] [RUS(int), SUB] [2017, комедия, романтика, школа, этти, WEBRip] Galfimbul 229226504219 MB 0 0 1508266979

22:02

17-Окт-17

Еще никто не оставлял запись к записи скачать торрент Моя девушка - убеждённая извращенка-девственница Boku no Kanojo ga Majime Sugiru Shobitch na Ken . Будь первым!

!Обратная связь