[ATV3] : Sniper: Ultimate Kill torrent

, , - AdBlock. #!


6.26 GB   |    :  2 5    |    .torrent :  3    |   
1  
   
...
 

Galfimbul

avatar Galfimbul


: / Sniper: Ultimate Kill
This time, weapons change the game

/ 10 / 10
: 2017
:
: , ,
: 01:33:18

: (Blu-ray EUR)
:
C: ,
:
: , ,
: , ,
: .
: ,
:
: , , , , , , , ,

: 3 2017

: . . , . : Blu-Ray (BlueBird)
: BDRip
: HD (1080p)
: M4V
: H.264, 1920x800, 2.40:1, 8 000 Kbps, 23.976 (24000/1001) fps

1: / (Blu-ray EUR), AAC / 2.0 / 160 Kbps / 48.0 KHz
2: / , AAC / 2.0 / 160 Kbps / 48.0 KHz
3: / (Blu-ray EUR), AC-3 / 5.1 / 640 Kbps / 48.0 KHz
4: / , AC-3 / 5.1 / 640 Kbps / 48.0 KHz

1:
2:
Sort Name: Sniper: Ultimate Kill
XID: Apple:vendor_id:2017-1026627
contentID: 1275413737
Copyright: 2017 Sony Pictures Worldwide Acquisitions Inc. All Rights Reserved.
Screenwriters: , ,
Producers: , ,
Director:
Cast: , , , , , , , ,
Studio: Destination Films
Rating: 126
Long Description: . "". , .
Description: . "". , .
Release Date: 2017-10-03T08:00:00Z
Genre: Action & Adventure
Artist: Claudio Fah
Name: Sniper: Ultimate Kill
General
Complete name : /Users/imac/HandBrake/Sniper- Ultimate Kill (1080p HD).m4v
Format : MPEG-4
Codec ID : M4V (M4V /M4A /mp42/isom)
File size : 6.26 GiB
Duration : 1h 33mn
Overall bit rate mode : Variable
Overall bit rate : 9 603 Kbps
Movie name : Sniper: Ultimate Kill
Performer : Claudio Fah
Director :
Actor : / / / / / / / /
Screenplay by : / /
Producer : / /
Production studio : Destination Films
Genre : Action & Adventure
ContentType : Short Film
Description : . "". , .
Recorded date : UTC 2017-10-03 08:00:00
Encoded date : UTC 2017-10-12 09:35:40
Tagged date : UTC 2017-10-12 09:37:29
Copyright : 2017 Sony Pictures Worldwide Acquisitions Inc. All Rights Reserved.
Cover : Yes
Rating : None
Title/Sort : Sniper: Ultimate Kill
LongDescription : . "". , .
AppleStoreCatalogID : 1275413737
Vendor : Apple:vendor_id:2017-1026627
ContentRating : uk-movie|18|400|

Video #1
ID : 1
Format : AVC
Format/Info : Advanced Video Codec
Format profile : High@L4
Format settings : CABAC / 4 Ref Frames
Format settings, CABAC : Yes
Format settings, ReFrames : 4 frames
Codec ID : avc1
Codec ID/Info : Advanced Video Coding
Duration : 1h 33mn
Source duration : 1h 33mn
Bit rate : 8 000 Kbps
Width : 1 920 pixels
Height : 800 pixels
Display aspect ratio : 2.40:1
Frame rate mode : Variable
Frame rate : 23.976 (24000/1001) fps
Minimum frame rate : 23.974 fps
Maximum frame rate : 23.981 fps
Color space : YUV
Chroma subsampling : 4:2:0
Bit depth : 8 bits
Scan type : Progressive
Bits/(Pixel*Frame) : 0.217
Stream size : 5.21 GiB (83%)
Source stream size : 5.21 GiB (83%)
Title : Main Program
Writing library : x264 core 148 r2708 86b7198
Encoding settings : cabac=1 / ref=4 / deblock=1:-2:-2 / analyse=0x3:0x133 / me=umh / subme=10 / psy=1 / psy_rd=1.00:0.15 / mixed_ref=1 / me_range=32 / chroma_me=1 / trellis=2 / 8x8dct=1 / cqm=0 / deadzone=21,11 / fast_pskip=1 / chroma_qp_offset=-3 / threads=25 / lookahead_threads=6 / sliced_threads=0 / nr=0 / decimate=0 / interlaced=0 / bluray_compat=0 / constrained_intra=0 / bframes=16 / b_pyramid=2 / b_adapt=2 / b_bias=0 / direct=3 / weightb=1 / open_gop=0 / weightp=2 / keyint=240 / keyint_min=24 / scenecut=40 / intra_refresh=0 / rc_lookahead=40 / rc=2pass / mbtree=1 / bitrate=8000 / ratetol=1.0 / qcomp=0.70 / qpmin=0 / qpmax=69 / qpstep=4 / cplxblur=20.0 / qblur=0.5 / ip_ratio=1.40 / aq=1:1.00
Language : English
Encoded date : UTC 2017-10-12 09:35:41
Tagged date : UTC 2017-10-12 09:35:56
Color range : Limited
Color primaries : BT.709
Transfer characteristics : BT.709
Matrix coefficients : BT.709
Menus : 8,9

Video #2
ID : 9
Format : JPEG
Codec ID : jpeg
Duration : 1h 33mn
Bit rate mode : Variable
Bit rate : 1 259 bps
Width : 640 pixels
Height : 266 pixels
Display aspect ratio : 2.40:1
Frame rate mode : Variable
Frame rate : 0.003 fps
Minimum frame rate : 0.002 fps
Maximum frame rate : 0.005 fps
Color space : YUV
Chroma subsampling : 4:2:0
Bit depth : 8 bits
Compression mode : Lossy
Bits/(Pixel*Frame) : 2.465
Stream size : 820 KiB (0%)
Title : Chapter Images
Language : English
Default : No
Encoded date : UTC 2017-10-12 09:36:51
Tagged date : UTC 2017-10-12 09:36:52
Menu For : 1

Audio #1
ID : 2
Format : AAC
Format/Info : Advanced Audio Codec
Format profile : LC
Codec ID : mp4a-40-2
Duration : 1h 33mn
Bit rate mode : Variable
Bit rate : 158 Kbps
Maximum bit rate : 234 Kbps
Channel(s) : 2 channels
Channel positions : Front: L R
Sampling rate : 48.0 KHz
Frame rate : 46.875 fps (1024 SPF)
Compression mode : Lossy
Stream size : 105 MiB (2%)
Title : Russian Stereo
Language : Russian
Default : Yes
Alternate group : 1
Encoded date : UTC 2017-10-12 09:35:41
Tagged date : UTC 2017-10-12 09:36:42
Fallback From : 4

Audio #2
ID : 3
Format : AAC
Format/Info : Advanced Audio Codec
Format profile : LC
Codec ID : mp4a-40-2
Duration : 1h 33mn
Bit rate mode : Variable
Bit rate : 159 Kbps
Maximum bit rate : 237 Kbps
Channel(s) : 2 channels
Channel positions : Front: L R
Sampling rate : 48.0 KHz
Frame rate : 46.875 fps (1024 SPF)
Compression mode : Lossy
Stream size : 106 MiB (2%)
Title : English Stereo
Language : English
Default : No
Alternate group : 1
Encoded date : UTC 2017-10-12 09:35:41
Tagged date : UTC 2017-10-12 09:36:42
Fallback From : 5

Audio #3
ID : 4
Format : AC-3
Format/Info : Audio Coding 3
Format settings, Endianness : Big
Codec ID : ac-3
Duration : 1h 33mn
Bit rate mode : Constant
Bit rate : 640 Kbps
Channel(s) : 6 channels
Channel positions : Front: L C R, Side: L R, LFE
Sampling rate : 48.0 KHz
Frame rate : 31.250 fps (1536 SPF)
Bit depth : 16 bits
Compression mode : Lossy
Stream size : 427 MiB (7%)
Title : Russian DD 5.1
Language : Russian
Service kind : Complete Main
Default : Inherited From: 2
Alternate group : 1
Encoded date : UTC 2017-10-12 09:35:41
Tagged date : UTC 2017-10-12 09:36:42
Fallback To : 2

Audio #4
ID : 5
Format : AC-3
Format/Info : Audio Coding 3
Format settings, Endianness : Big
Codec ID : ac-3
Duration : 1h 33mn
Bit rate mode : Constant
Bit rate : 640 Kbps
Channel(s) : 6 channels
Channel positions : Front: L C R, Side: L R, LFE
Sampling rate : 48.0 KHz
Frame rate : 31.250 fps (1536 SPF)
Bit depth : 16 bits
Compression mode : Lossy
Stream size : 427 MiB (7%)
Title : English DD 5.1
Language : English
Service kind : Complete Main
Default : No
Alternate group : 1
Encoded date : UTC 2017-10-12 09:35:41
Tagged date : UTC 2017-10-12 09:36:42
Fallback To : 3

Text #1
ID : 6
Format : Timed Text
Muxing mode : sbtl
Codec ID : tx3g
Duration : 1h 29mn
Bit rate mode : Variable
Bit rate : 69 bps
Stream size : 45.6 KiB (0%)
Title : Russian full
Language : Russian
Default : Yes
Forced : No
Alternate group : 2
Encoded date : UTC 2017-10-12 09:35:41
Tagged date : UTC 2017-10-12 09:36:40

Text #2
ID : 7
Format : Timed Text
Muxing mode : sbtl
Codec ID : tx3g
Duration : 1h 29mn
Bit rate mode : Variable
Bit rate : 55 bps
Stream size : 36.1 KiB (0%)
Title : English full
Language : English
Default : No
Forced : No
Alternate group : 2
Encoded date : UTC 2017-10-12 09:35:41
Tagged date : UTC 2017-10-12 09:36:40

Menu #1
00:00:00.000 : Chapter 1
00:04:19.134 : Chapter 2
00:09:10.258 : Chapter 3
00:16:38.956 : Chapter 4
00:26:19.828 : Chapter 5
00:31:34.559 : Chapter 6
00:37:23.241 : Chapter 7
00:44:08.771 : Chapter 8
00:48:09.929 : Chapter 9
00:51:42.308 : Chapter 10
00:56:47.321 : Chapter 11
01:04:21.232 : Chapter 12
01:11:19.400 : Chapter 13
01:15:25.396 : Chapter 14
01:19:42.778 : Chapter 15
01:25:53.899 : Chapter 16

Menu #2
ID : 8
Codec ID : text
Duration : 1h 33mn
Language : English
Encoded date : UTC 2017-10-12 09:36:42
Tagged date : UTC 2017-10-12 09:36:42
Menu For : 1
00:00:00.000 : Chapter 1
00:04:19.134 : Chapter 2
00:09:10.258 : Chapter 3
00:16:38.956 : Chapter 4
00:26:19.828 : Chapter 5
00:31:34.559 : Chapter 6
00:37:23.241 : Chapter 7
00:44:08.771 : Chapter 8
00:48:09.929 : Chapter 9
00:51:42.308 : Chapter 10
00:56:47.321 : Chapter 11
01:04:21.232 : Chapter 12
01:11:19.400 : Chapter 13
01:15:25.396 : Chapter 14
01:19:42.778 : Chapter 15
01:25:53.899 : Chapter 16
Bit rate mode : VBR
x264 [info]: frame I:817 Avg QP:19.54 size:183357
x264 [info]: frame P:27858 Avg QP:22.96 size: 66663
x264 [info]: frame B:105554 Avg QP:23.80 size: 33998
x264 [info]: consecutive B-frames: 2.1% 3.2% 6.3% 16.2% 16.1% 28.6% 9.4% 13.2% 2.8% 0.5% 0.4% 1.0% 0.1% 0.0% 0.0% 0.0% 0.0%
x264 [info]: mb I I16..4: 8.6% 75.7% 15.7%
x264 [info]: mb P I16..4: 1.2% 12.6% 1.0% P16..4: 45.1% 20.2% 11.1% 0.3% 0.1% skip: 8.4%
x264 [info]: mb B I16..4: 0.0% 1.1% 0.1% B16..8: 51.2% 9.8% 2.4% direct: 8.1% skip:27.3% L0:46.8% L1:46.3% BI: 6.9%
x264 [info]: 8x8 transform intra:85.2% inter:55.5%
x264 [info]: direct mvs spatial:98.8% temporal:1.2%
x264 [info]: coded y,uvDC,uvAC intra: 92.8% 67.2% 27.1% inter: 41.6% 19.6% 2.5%
x264 [info]: i16 v,h,dc,p: 23% 21% 18% 37%
x264 [info]: i8 v,h,dc,ddl,ddr,vr,hd,vl,hu: 6% 7% 8% 12% 15% 13% 14% 11% 13%
x264 [info]: i4 v,h,dc,ddl,ddr,vr,hd,vl,hu: 9% 10% 4% 9% 14% 13% 15% 11% 15%
x264 [info]: i8c dc,h,v,p: 35% 30% 20% 16%
x264 [info]: Weighted P-Frames: Y:2.0% UV:0.9%
x264 [info]: ref P L0: 50.6% 12.0% 26.3% 10.7% 0.4% 0.0%
x264 [info]: ref B L0: 84.7% 12.8% 2.6%
x264 [info]: ref B L1: 92.9% 7.1%
x264 [info]: kb/s:7995.78
Apple TV, iPad, iPhone, iPod Touch.
Windows VLC media player

 ·  , , FAQ-
:  [ 12--2017 13:12 ]

  

.torrent

.torrent 63 KB


: 6.26 GB
(hash) : ad9f5f887cd0115eea1b004cd1f6166f1958679e
··
...

[ATV3] : Sniper: Ultimate Kill . !

!