Скачать через торрент музыку Семейка Роуз Bienvenue Chez Les Rozes бесплатно без регистрации torrent

Если у вас наблюдаются проблемы со скриншотами, переходом по ссылками, скачиванием торрентов - проблемы в блокировщике рекламы AdBlock. #хорошегоДня!


Статистика раздачи
Размер:  379 MB   |    Зарегистрирован:  2 месяца   |    .torrent скачан:  8 раз   |   
Раздают:  1  
   
Загрузка...
 
Автор Сообщение

Galfimbul

avatar Galfimbul


Семейка Роуз / Bienvenue Chez Les Rozes

Название альбома: Bienvenue Chez Les Rozes
Жанр: Score
Композитор: Serge Perathoner & Janniсk Top
Год выпуска диска: 2003
Год выпуска фильма: 2003
Страна-производитель диска: France
Издатель (лейбл): Une Musique De Film
Номер по каталогу: 8345103352
Аудиокодек: FLAC (*.flac)
Тип рипа: image+.cue
Битрейт аудио: lossless
Продолжительность: 50:44
Источник: собственный диск
Наличие сканов в содержимом раздачи: да
Треклист:
01.Béatrice Rozes (Declaration) /0:05/
02.Randonnee Mortelle /3:00/
03.Pelerinage A Fleury Plaisance /3:40/
04.Mg (Innocence) /0:04/
05.Déjeuner En Paix /3:31/
06.Bienvenue Chez Eux /1:57/
07.Béatrice Rozes (Introspection) /0:10/
08.Déshabillez-Moi /3:47/
09.Profanation /1:32/
10.Jardin De Rêve /3:00/
11.Gilbert (Plainte) /0:04/
12.La Complainte De Mandrin /3:48/
13.Noces De Porcelaine /1:56/
14.Mirage /3:04/
15.Jean-Louis (Supplique) /0:04/
16.Je Ne Suis Pas Bien Portant /3:14/
17.Tourteaux Song /2:10/
18.Tous Des Girouettes /1:56/
19.Bienvenue En Prison /1:58/
20.Daniel Rozes (Négociation) /0:04/
21.Vieille Canaille /3:00/
22.Tempête Sur Une Gloriette /0:35/
23.Magali Rozes (Provoc) /0:06/
24.Les Démons De Minuit /3:47/
25.Randonners' Band /2:59/
26.Le Junkie (Information) /1:13/
Exact Audio Copy V1.1 from 23. June 2015

Отчёт EAC об извлечении, выполненном 12. октября 2017, 15:21

Serge Perathoner & Jannick Top / Bienvenue Chez Les Rozes

Дисковод: PIONEER DVD-RW DVR-221L Adapter: 1 ID: 0

Режим чтения : ДостоверностьИспользование точного потока : ДаОтключение кэша аудио : ДаИспользование указателей C2 : Нет

Коррекция смещения при чтении : 6Способность читать области Lead-in и Lead-out : НетЗаполнение пропущенных сэмплов тишиной : ДаУдаление блоков с тишиной в начале и конце : НетПри вычислениях CRC использовались нулевые сэмплы : ДаИнтерфейс : Встроенный Win32-интерфейс для Win NT/2000

Выходной формат : Пользовательский кодировщикВыбранный битрейт : 128 kBit/sКачество : ВысокийДобавление ID3-тега : НетУтилита сжатия : C:\Program Files (x86)\Exact Audio Copy\FLAC\FLAC.EXEДополнительные параметры : -6 -V -T "Date=%year%" -T "Genre=%genre%" %source%

TOC извлечённого CD

Трек | Старт | Длительность | Начальный сектор | Конечный сектор --------------------------------------------------------------------- 1 | 0:00.00 | 0:05.21 | 0 | 395 2 | 0:05.21 | 3:00.71 | 396 | 13966 3 | 3:06.17 | 3:40.17 | 13967 | 30483 4 | 6:46.34 | 0:04.08 | 30484 | 30791 5 | 6:50.42 | 3:31.50 | 30792 | 46666 6 | 10:22.17 | 1:57.03 | 46667 | 55444 7 | 12:19.20 | 0:10.37 | 55445 | 56231 8 | 12:29.57 | 3:47.06 | 56232 | 73262 9 | 16:16.63 | 1:32.18 | 73263 | 80180 10 | 17:49.06 | 3:00.05 | 80181 | 93685 11 | 20:49.11 | 0:04.15 | 93686 | 94000 12 | 20:53.26 | 3:48.25 | 94001 | 111125 13 | 24:41.51 | 1:56.05 | 111126 | 119830 14 | 26:37.56 | 3:04.36 | 119831 | 133666 15 | 29:42.17 | 0:04.55 | 133667 | 134021 16 | 29:46.72 | 3:14.35 | 134022 | 148606 17 | 33:01.32 | 2:10.38 | 148607 | 158394 18 | 35:11.70 | 1:56.16 | 158395 | 167110 19 | 37:08.11 | 1:58.18 | 167111 | 175978 20 | 39:06.29 | 0:04.05 | 175979 | 176283 21 | 39:10.34 | 3:00.40 | 176284 | 189823 22 | 42:10.74 | 0:35.42 | 189824 | 192490 23 | 42:46.41 | 0:06.70 | 192491 | 193010 24 | 42:53.36 | 3:47.14 | 193011 | 210049 25 | 46:40.50 | 2:59.28 | 210050 | 223502 26 | 49:40.03 | 1:13.55 | 223503 | 229032

Характеристики диапазона извлечения и сообщения об ошибках

Выбранный диапазон

Имя файла D:\Мусор\Serge Perathoner & Jannick Top - Bienvenue Chez Les Rozes - 2003.wav

Пиковый уровень 100.0 % Скорость извлечения 6.8 X Качество диапазона 99.9 % CRC теста D3EF063B CRC копии D3EF063B Копирование... OK

Ошибок не произошло

AccurateRip: сводка

Трек 1 отсутствует в базе данныхТрек 2 : извлечено точно (доверие 2) [D8D6FA58] (AR v2)Трек 3 : извлечено точно (доверие 2) [C61E2859] (AR v2)Трек 4 отсутствует в базе данныхТрек 5 точность не определена (достоверность 2) [AD4DE943], AccurateRip вернул [DE76E305] (AR v2)Трек 6 : извлечено точно (доверие 2) [FF306153] (AR v2)Трек 7 : извлечено точно (доверие 2) [ECF5EAF7] (AR v2)Трек 8 : извлечено точно (доверие 2) [AA799BA6] (AR v2)Трек 9 : извлечено точно (доверие 2) [F1C8675D] (AR v2)Трек 10 : извлечено точно (доверие 2) [0F0F462F] (AR v2)Трек 11 отсутствует в базе данныхТрек 12 точность не определена (достоверность 2) [CB859673], AccurateRip вернул [ACC450D1] (AR v2)Трек 13 : извлечено точно (доверие 2) [90D8BC37] (AR v2)Трек 14 : извлечено точно (доверие 2) [BEC6670C] (AR v2)Трек 15 отсутствует в базе данныхТрек 16 : извлечено точно (доверие 2) [3EB4DF2C] (AR v2)Трек 17 : извлечено точно (доверие 2) [99A33183] (AR v2)Трек 18 : извлечено точно (доверие 2) [47258E34] (AR v2)Трек 19 : извлечено точно (доверие 2) [D0483E00] (AR v2)Трек 20 отсутствует в базе данныхТрек 21 точность не определена (достоверность 2) [4DD34216], AccurateRip вернул [67A622D5] (AR v2)Трек 22 : извлечено точно (доверие 2) [8B6A833E] (AR v2)Трек 23 : извлечено точно (доверие 2) [C47B6E78] (AR v2)Трек 24 : извлечено точно (доверие 2) [BBEAE356] (AR v2)Трек 25 : извлечено точно (доверие 2) [D80E3F97] (AR v2)Трек 26 : извлечено точно (доверие 2) [EB28D35B] (AR v2)

18 трек(и) скопированы точно 3 трек(и) не удалось проверить на точность 5 трек(и) не содержатся в базе AccurateRip

Некоторые треки не прошли проверку на точность

Конец отчёта

==== Контрольная сумма отчёта 81FB669D38E7AC9542DBCBDB95284D2FEF17EB4848026A760945A1C386D48FCC ====


Трекер:  [ 12-Окт-2017 16:06 ]

  

Скачать .torrent

Размер .torrent файла 16 KB


Размер: 379 MB
Хэш (hash) релиза: 0ddd3e8c78104680ffca74f253e59ba4e29432e5

Еще никто не оставлял запись к записи скачать торрент Семейка Роуз Bienvenue Chez Les Rozes . Будь первым!

!Обратная связь