Скачать через торрент Я на вас рассчитываю Je compte sur vous Фильм бесплатно в хорошем качестве torrent

Скачивайте на UnionPeer.org фильмы через торрент без регистрации. Новинки кино в хорошем качестве через торрент. На UnionPeer.org можно скачать через торрент фильмы 2014 и 2015 годов. Самые новые фильмы.

Скачать торрент Я на вас рассчитываю Je compte sur vous бесплатно через .torrent фильм мультфильм сериал

Если у вас наблюдаются проблемы со скриншотами, переходом по ссылками, скачиванием торрентов - проблемы в блокировщике рекламы AdBlock. #хорошегоДня!


Статистика раздачи
Размер:  2.16 GB   |    Зарегистрирован:  2 месяца   |    .torrent скачан:  12 раз   |   
Раздают:  1  
   
Загрузка...
 
Автор Сообщение

Galfimbul

avatar Galfimbul


Я на вас рассчитываю
Je compte sur vous
Страна: Франция
Жанр: авантюрная трагикомедия
Год выпуска: 2015
Продолжительность: 01:33:57Перевод: Субтитры (русский перевод А.Вижье, Eclair Media)
Субтитры: русские, английские, французские, немецкие, нидерландские
Оригинальная аудиодорожка: французский

Режиссер: Паскаль Эльбе / Pascal Elbé

В ролях: Венсан Эльбаз / Vincent Elbaz (Gilbert Perez), Жюли Гайе / Julie Gayet (Barbara Perez), Забу Брайтман / Zabou Breitman (Inspecteur Moretti), Людовик Дэй / Ludovik Day (Maxime Perez), Анн Шаррье (Céline Lerbier), Лионель Абелянски / Lionel Abelanski (Lefevre), Николь Кальфан / Nicole Calfan (Rose Perez), Катрин Муше / Catherine Mouchet (La juge)

Описание: Фильм основан на реальных событиях. Француз Жильбер Шикли / Gilbert Chikli на родине считается нетитулованным "королем жуликов". Ныне проживающий в Израиле, откуда он не может быть экстрадирован, при помощи группы сообщников в 2005-2009 годах смог обманным путем получить огромные суммы от работников французских финансовых организаций и банков. Причем, в большинстве случаев, ему удавалось получать деньги наличными. От ловкости рук "короля" пострадали Alstom, HSBС, Banque postale, Crédit lyonnais, Thompson и др. Жильбер, из ряда вон выходящий манипулятор, смог украсть несколько миллионов евро при помощи обычного телефона. Его метод? Убедить своих жертв, что они были выбраны для секретной миссии...

Доп. информация: Hot Bird (13.0°E) TV5MONDE Europe DVB-S

Качество видео: DVB
Формат видео: MKV

Видео: MPEG Video 2, 720x576@1024x576 (16:9), 25 fps, ~3040 kbps avg, 0.293 bit/pixel
Аудио: MPEG Audio 2, 2 ch, 48 kHz, 192 kbps - французский
Формат субтитров: softsub (SRT)
100:00:41,971 --> 00:00:45,096Судебный пристав!

200:00:46,460 --> 00:00:48,585Откройте!

300:00:52,537 --> 00:00:54,853Привет, малыш.Мама дома?

400:00:54,853 --> 00:00:58,609Вы врач?Быстрее, ей стало хуже.

500:00:58,609 --> 00:01:00,658-Что?-Я же сказал по телефону.

600:01:00,658 --> 00:01:02,370У неебыл припадок эпик...

700:01:02,370 --> 00:01:04,097-Эпилепсии?-Да.

800:01:04,097 --> 00:01:05,494А твой папа где?

900:01:05,494 --> 00:01:07,744Папа умер.

1000:01:10,259 --> 00:01:12,370Проходите.Она вас ждет.

1100:01:12,370 --> 00:01:15,490Малыш, я не врач,а судебный пристав.

1200:01:15,490 --> 00:01:20,365Тогда я пойдукараулить врача.

1300:01:28,774 --> 00:01:33,399-Зайдем в другой раз.-Да.

1400:01:33,500 --> 00:01:35,221Малыш, послушай.

1500:01:35,221 --> 00:01:38,291Пускай твоя мама поправляется.Мы зайдем попозже.

1600:01:38,291 --> 00:01:39,492Хорошо.

1700:01:39,492 --> 00:01:41,052-Извините.-Да.

1800:01:41,052 --> 00:01:43,984Нам отключили телефон.А вдруг мне придется

1900:01:43,984 --> 00:01:45,975снова звонить врачуиз кабины...

2000:01:45,975 --> 00:01:48,225Я понимаю.
GeneralUnique ID : 231325832450339836541698463254624761172 (0xAE07BC19678B2721964422A2E8667554)Complete name : [apreder]Je_compte_sur_vous(2015)DVB.mkvFormat : MatroskaFormat version : Version 2File size : 2.16 GiBDuration : 1 h 33 minOverall bit rate mode : VariableOverall bit rate : 3 298 kb/sMovie name : Je compte sur vousReleased date : 2015-12-30Encoded date : UTC 2017-10-09 16:13:18Writing application : mkvmerge v16.0.0 ('Protest') 64-bitWriting library : libebml v1.3.5 + libmatroska v1.4.8Cover : YesAttachments : cover.jpg / small_cover.jpgACTOR : Vincent Elbaz, Julie Gayet, Zabou BreitmanDIRECTOR : Pascal ElbeGENRE : Comedy, DramaIMDB : tt4531006KEYWORDS : rutracker.orgLAW_RATING : 16+

VideoID : 1Format : MPEG VideoFormat version : Version 2Format profile : Main@MainFormat settings : CustomMatrix / BVOPFormat settings, BVOP : YesFormat settings, Matrix : CustomFormat settings, GOP : M=4, N=12Format settings, picture structure : FrameCodec ID : V_MPEG2Codec ID/Info : MPEG 1 or 2 VideoDuration : 1 h 33 minBit rate mode : VariableBit rate : 3 040 kb/sMaximum bit rate : 15.0 Mb/sWidth : 720 pixelsHeight : 576 pixelsDisplay aspect ratio : 16:9Active Format Description : Letterbox 16:9 imageFrame rate mode : ConstantFrame rate : 25.000 FPSStandard : PALColor space : YUVChroma subsampling : 4:2:0Bit depth : 8 bitsScan type : InterlacedScan order : Top Field FirstCompression mode : LossyBits/(Pixel*Frame) : 0.293Stream size : 2.00 GiB (92%)Default : YesForced : No

AudioID : 2Format : MPEG AudioFormat version : Version 1Format profile : Layer 2Format settings : Joint stereo / Intensity Stereo + MS StereoMode : Joint stereoMode extension : Intensity Stereo + MS StereoCodec ID : A_MPEG/L2Codec ID/Hint : MP2Duration : 1 h 33 minBit rate mode : ConstantBit rate : 192 kb/sChannel(s) : 2 channelsSampling rate : 48.0 kHzCompression mode : LossyStream size : 129 MiB (6%)Language : FrenchDefault : YesForced : No

Text #1ID : 3Format : UTF-8Codec ID : S_TEXT/UTF8Codec ID/Info : UTF-8 Plain TextLanguage : RussianDefault : NoForced : No

Text #2ID : 4Format : UTF-8Codec ID : S_TEXT/UTF8Codec ID/Info : UTF-8 Plain TextLanguage : EnglishDefault : NoForced : No

Text #3ID : 5Format : UTF-8Codec ID : S_TEXT/UTF8Codec ID/Info : UTF-8 Plain TextLanguage : FrenchDefault : NoForced : No

Text #4ID : 6Format : UTF-8Codec ID : S_TEXT/UTF8Codec ID/Info : UTF-8 Plain TextLanguage : GermanDefault : NoForced : No

Text #5ID : 7Format : UTF-8Codec ID : S_TEXT/UTF8Codec ID/Info : UTF-8 Plain TextLanguage : DutchDefault : NoForced : No


<div class="sp-wrap">
<div class="sp-head folded">Резервные скриншоты</div>
<div class="sp-body">

</div>
</div>
[3'902]

Трекер:  [ 12-Окт-2017 17:01 ]

  

Скачать .torrent

Размер .torrent файла 22 KB


Размер: 2.16 GB
Хэш (hash) релиза: 01c5a8aefa54142ca5f5e922736e1ecdc25d5f69
Подписка на обновления:

Еще никто не оставлял запись к записи скачать торрент Я на вас рассчитываю Je compte sur vous . Будь первым!

!Обратная связь