Скачать через торрент Однажды в Америке Once Upon a Time in America Фильм бесплатно в хорошем качестве torrent

Скачивайте на UnionPeer.org фильмы через торрент без регистрации. Новинки кино в хорошем качестве через торрент. На UnionPeer.org можно скачать через торрент фильмы 2014 и 2015 годов. Самые новые фильмы.

Скачать торрент Однажды в Америке Once Upon a Time in America бесплатно через .torrent фильм мультфильм сериал

Если у вас наблюдаются проблемы со скриншотами, переходом по ссылками, скачиванием торрентов - проблемы в блокировщике рекламы AdBlock. #хорошегоДня!


Статистика раздачи
Размер:  8.74 GB   |    Зарегистрирован:  1 месяц 30 дней   |    .torrent скачан:  10 раз   |   
Раздают:  1  
   
Загрузка...
 
Автор Сообщение

Galfimbul

avatar Galfimbul


Однажды в Америке / Once Upon a Time in America

Страна: Италия, США
Жанр: драма, криминал
Год выпуска: 1983
Продолжительность: 03:48:42

Перевод: Профессиональный (многоголосый, закадровый)
Субтитры: английские
Оригинальная аудиодорожка: английская

Режиссер: Серджио Леоне / Sergio Leone

В ролях: Роберт Де Ниро, Джеймс Вудс, Элизабет МакГоверн, Джо Пеши, Берт Янг, Тьюзди Уэлд, Трит Уильямс, Дэнни Айелло, Ричард Брайт, Джеймс Хейден,

Описание: В бурные двадцатые годы, когда Америка веселилась под звуки джаза и каждый бродяга мечтал стать миллионером, в трущобах Нью-Йорка встретились несколько отчаянных парней. Убирая с дороги конкурентов, безжалостно карая предателей и нагло проворачивая хитроумные аферы, они стали королями преступного мира золотой эры «сухого закона». Они поклялись отдать жизнь друг за друга, зная, что самое главное для них — это дружба, долг и справедливость — не утопить в реках крови и бездонном океане денег. Спустя много лет судьба жестоко обошлась с легендарными гангстерами, заставив их исполнить свою клятву. Это случилось однажды в Америке…

Меню: есть, английское, статичное

Тип релиза: DVD5 (Сжатый)
Контейнер: DVD-Video

Видео: NTSC 16:9 (720x480(0.467)) MPEG Video, 23,976 кадр/сек, 3869 Кбит/сек
Аудио: English (Dolby AC-3, 6 ch) 448 Кбит/сек, 48.0 КГц
Аудио 2: Russian (Dolby AC-3, 6 ch) 448 Кбит/сек, 48.0 КГц
2xDVD5 (Сжатый)

1 Диск - 01:59:43
2 Диск - 01:48:59

Фильм взят с 2 дисков DVD9.
Сжималось связкой DvdReMakePro + DVD Rebuilder + ССЕ. Удалены доп. материалы, аудиодорожка на французском языке и аудиодорожка на английском языке (комментарии режиссера).
Меню отредактировано.

Видео сжималось:
На 1-ом диске на 15-20% на динамичных сценах и 25-35% на статике;
На 2-ом диске на 5-15% на динамичных сценах и 20-25% на статике.
Общее
Полное имя : Once_Upon_a_Time_in_Amerca\Disc1\VIDEO_TS\VTS_01_1.VOB
Формат : MPEG-PS
Размер файла : 1024 Мбайт
Продолжительность : 29 м. 26 с.
Режим общего битрейта : Переменный
Общий поток : 4861 Кбит/сек

Видео
Идентификатор : 224 (0xE0)
Формат : MPEG Video
Версия формата : Version 2
Профиль формата : Main@Main
Параметр BVOP формата : Да
Параметр матрицы формата : Выборочная
Параметр GOP формата : Variable
Продолжительность : 29 м. 26 с.
Вид битрейта : Переменный
Битрейт : 3869 Кбит/сек
Максимальный битрейт : 7265 Кбит/сек
Ширина : 720 пикселей
Высота : 480 пикселей
Соотношение сторон : 16:9
Частота кадров : 23,976 (24000/1001) кадра/сек
Цветовое пространство : YUV
Субдискретизация насыщенности : 4:2:0
Битовая глубина : 8 бит
Тип развёртки : Прогрессивная
Порядок развёртки : 2:3 Pulldown
Метод сжатия : С потерями
Бит/(Пиксели*Кадры) : 0.467
Временной код первого кадра : 00:00:00:00
Оригинал временного кода : Group of pictures header
GOP, открыто/закрыто : Открыто
GOP, открыто/закрыто на первом кадре : Закрыто
Размер потока : 815 Мбайт (80%)

Аудио #1
Идентификатор : 189 (0xBD)-128 (0x80)
Формат : AC-3
Формат/Информация : Audio Coding 3
Параметр Endianness формата : Big
Режим смешивания : DVD-Video
Продолжительность : 29 м. 26 с.
Вид битрейта : Постоянный
Битрейт : 448 Кбит/сек
Каналы : 6 каналов
Расположение каналов : Front: L C R, Side: L R, LFE
Частота : 48,0 КГц
Частота кадров : 31,250 кадров/сек (1536 spf)
Битовая глубина : 16 бит
Метод сжатия : С потерями
Размер потока : 94,3 Мбайт (9%)
ServiceKind/String : Complete Main

Аудио #2
Идентификатор : 189 (0xBD)-130 (0x82)
Формат : AC-3
Формат/Информация : Audio Coding 3
Параметр Endianness формата : Big
Режим смешивания : DVD-Video
Продолжительность : 29 м. 26 с.
Вид битрейта : Постоянный
Битрейт : 448 Кбит/сек
Каналы : 6 каналов
Расположение каналов : Front: L C R, Side: L R, LFE
Частота : 48,0 КГц
Частота кадров : 31,250 кадров/сек (1536 spf)
Битовая глубина : 16 бит
Метод сжатия : С потерями
Размер потока : 94,3 Мбайт (9%)
ServiceKind/String : Complete Main


Трекер:  [ 12-Окт-2017 18:30 ]

  

Скачать .torrent

Размер .torrent файла 24 KB


Размер: 8.74 GB
Хэш (hash) релиза: 7b3076c8c5fe511e765494c77a0033580405cf0e
Подписка на обновления:

Торренты, похожие на Однажды в Америке Once Upon a Time in America скачать торрент

Форум Название Автор Размер S L Добавлен
Трейлеры и дополнительные материалы ·· Однажды в Америке / Once Upon a Time in America (Серджио Леоне) [1984, Драма | Криминал, BDRip] дополнительные материалы Galfimbul 660660629630 MB 0 0 1414056803

12:33

23-Окт-14

Зарубежные фильмы до 2016 ·· Однажды в Америке / Once Upon a Time in America (Серджио Леоне / Sergio Leone) [1983, США, Италия, Драма, криминал, BD>2xDVD9 (Custom)] [Расширенная версия / Extended edition] AVO (Сербин) + Sub Eng, Rus + Original Eng damien1990 1512819097614.09 GB 0 0 1364581719

21:28

29-Мар-13

Зарубежные фильмы до 2016 ·· Однажды в Америке / Once Upon a Time in America (Серджио Леоне / Sergio Leone) [1984, драма, криминал, HDRip] DVO (НТВ) + VO (Ленфильм) Galfimbul 30385295362.83 GB 0 0 1348568580

13:23

25-Сен-12

Зарубежные фильмы до 2016 ·· Однажды в Америке / Once Upon a Time in America (Сержио Леоне / Sergio Leone) [1984, США, криминальная драма, BDRemux 1080p] sebladec 4429001768941.25 GB 0 0 1299762082

16:01

10-Мар-11

Зарубежные фильмы до 2016 ·· Однажды в Америке / Once Upon a Time in America (Серджио Леоне / Sergio Leone) [1984 г., криминальная драма, HDRip] MVO х 2 (Киномания, Позитив) + AVO (Горчаков, Михалев) sebladec 45683783684.25 GB 2 0 1299761676

15:54

10-Мар-11

Зарубежные фильмы до 2016 ·· Однажды в Америке / Once Upon a Time in America (Серджио Леоне / Sergio Leone) [1984 г., криминальная драма, HDRip] MVO (Киномания) sebladec 23483207682.19 GB 0 0 1299761572

15:52

10-Мар-11

Зарубежные фильмы до 2016 ·· Однажды в Америке / Once Upon a Time in America (Серджио Леоне / Sergio Leone) [1984 г., криминальная драма, HDRip] MVO (Позитив) sebladec 15703265281.46 GB 2 0 1299761507

15:51

10-Мар-11

Зарубежные фильмы до 2016 ·· Однажды в Америке / Once Upon a Time in America (Серджио Леоне / Sergio Leone) [1984, США, Италия, Драма, криминал, Blu-ray disc (custom) 1080p] MVO DVO AVO Sub rus + original eng sebladec 4903312404945.67 GB 0 0 1299761391

15:49

10-Мар-11

Зарубежные фильмы до 2016 ·· Однажды в Америке / Once Upon A Time In America (Серджио Леоне / Sergio Leone) [1984, США, Италия, драма, криминал, гангстерский, BDRip 720p] MVO (НТВ+, Позитив-Мультимедиа, Супербит) + VO (Борисов, Конкин) + Sub rus + original eng Nomak 1672819635915.58 GB 0 0 1295725900

22:51

22-Янв-11

Зарубежные фильмы до 2016 ·· Однажды в Америке / Once Upon a Time in America (Сержио Леоне / Sergio Leone) [1984, США, криминальная драма, BDRemux 1080p] MVO Sub rus + original eng L 3928148066836.58 GB 0 0 1295725624

22:47

22-Янв-11

PSP | Фильмы ·· Однажды в Америке / Once Upon a Time in America (Серджио Леоне) [1984 г., Драма, криминал, HDTVRip] MVO кУпи!!! 13252424631.23 GB 0 0 1294608579

00:29

10-Янв-11

Зарубежные фильмы до 2016 ·· Однажды в Америке / Once Upon a Time in America (Сержио Леоне / Sergio Leone) [1984, США, криминальная драма, BDRemux] Nomak 4420417423641.17 GB 0 0 1294598892

21:48

9-Янв-11

Зарубежные фильмы до 2016 ·· Однажды в Америке / Once Upon a Time in America (Сержио Леоне / Sergio Leone) [1984, США, криминальная драма, BDRip 1080p] Nomak 2271962092721.16 GB 0 0 1294532040

03:14

9-Янв-11

Зарубежные фильмы до 2016 ·· Американские приключения / Однажды в Китае и Америке / Once Upon a Time in China and America / Wong Fei Hung: Chi sai wik hung see (Саммо Хунг Кам-Бо / Sammo Hung Kam-Bo) [1997, Гонконг, боевые искусства, приключения, вестерн, HDRip] DVO [Рен ТВ] AVO Galfimbul 17124910081.59 GB 0 0 1336146360

18:46

4-Май-12

Зарубежные фильмы до 2016 ·· Американские приключения / Однажды в Китае и Америке / Once Upon a Time in China and America / Wong Fei Hung: Chi sai wik hung see (Саммо Хунг Кам-Бо / Sammo Hung Kam-Bo) [1997, Гонконг, боевые искусства, приключения, вестерн, HDRip] DVO AVO Galfimbul 926745088884 MB 0 0 1336146360

18:46

4-Май-12

Еще никто не оставлял запись к записи скачать торрент Однажды в Америке Once Upon a Time in America . Будь первым!

!Обратная связь