Скачать через торрент Случайный контакт Случайная помолвка Фильм бесплатно в хорошем качестве torrent

Скачивайте на UnionPeer.org фильмы через торрент без регистрации. Новинки кино в хорошем качестве через торрент. На UnionPeer.org можно скачать через торрент фильмы 2014 и 2015 годов. Самые новые фильмы.

Скачать торрент Случайный контакт Случайная помолвка бесплатно через .torrent фильм мультфильм сериал

Если у вас наблюдаются проблемы со скриншотами, переходом по ссылками, скачиванием торрентов - проблемы в блокировщике рекламы AdBlock. #хорошегоДня!


Статистика раздачи
Размер:  1.1 GB   |    Зарегистрирован:  2 месяца   |    .torrent скачан:  38 раз   |   
Раздают:  1  
   
Загрузка...
 
Автор Сообщение

Galfimbul

avatar Galfimbul


Случайный контакт : Accidental Engagement
Страна: США
Жанр: мелодрама
Продолжительность: 01:19:59
Год выпуска: 2016
Перевод: Профессиональный (двухголосый закадровый)
Субтитры: отсутствуютРежиссёр: Летия Клустон : Letia Clouston.
В ролях: Лекси Джованьоли, Брэнт Догерти, Лекси Аткинс, Рэнди Уэйн, Морин МакКормик, Джоан Северанс, Эшли Финк, Мередит Мэй, Ариана Гуерра, Винсент Джованьоли...Описание: Для хозяйки Нью-Йоркского ресторана в Айви Синклер это начиналось как обычная ночь, пока не выяснилось, что шумный клиент это всемирно известный плейбой Джек Эверетт. Благодаря папарацци, теперь весь мир думает, что они пара, что не может быть далеко от истины. Но когда задумчивый, сексуальный бизнесмен делает ей предложение, от которого тяжело отказаться ...Данный фильм вместе с русским переводом появляется в сети впервые.
Семпл: http://sendfile.su/1367811Качество: SATRip [ASTANA TV] (эфир 07.10.2017)
Формат: AVI
Видео: XviD 67, 720x400 (16:9), 25 fps, ~1762 kbps, 0.245 bit/pixel
Аудио: [RUS] 48 kHz, AC3 Dolby Digital, 1 ch, 192 kbps
Общее
Полное имя : F:\Accidental.Engagement.2016.XviD.SATRip.avi
Формат : AVI
Формат/Информация : Audio Video Interleave
Размер файла : 1,10 Гбайт
Продолжительность : 1 ч. 19 м.
Общий поток : 1963 Кбит/сек
Программа кодирования : VirtualDubMod 1.5.10.2 (build 2540/release)
Библиотека кодирования : VirtualDubMod build 2540/release

Видео
Идентификатор : 0
Формат : MPEG-4 Visual
Профиль формата : Advanced Simple@L5
Параметр BVOP формата : 2
Параметр QPel формата : Нет
Параметр GMC формата : Без точки перехода
Параметр матрицы формата : Default (H.263)
Идентификатор кодека : XVID
Идентификатор кодека/Подсказка : XviD
Продолжительность : 1 ч. 19 м.
Битрейт : 1762 Кбит/сек
Ширина : 720 пикселей
Высота : 400 пикселей
Соотношение сторон : 16:9
Частота кадров : 25,000 кадров/сек
Цветовое пространство : YUV
Субдискретизация насыщенности : 4:2:0
Битовая глубина : 8 бит
Тип развёртки : Прогрессивная
Метод сжатия : С потерями
Бит/(Пиксели*Кадры) : 0.245
Размер потока : 1008 Мбайт (90%)
Библиотека кодирования : XviD 67

Аудио
Идентификатор : 1
Формат : AC-3
Формат/Информация : Audio Coding 3
Параметр Endianness формата : Big
Идентификатор кодека : 2000
Продолжительность : 1 ч. 19 м.
Вид битрейта : Постоянный
Битрейт : 192 Кбит/сек
Каналы : 1 канал
Расположение каналов : Front: C
Частота : 48,0 КГц
Частота кадров : 31,250 кадров/сек (1536 SPF)
Битовая глубина : 16 бит
Метод сжатия : С потерями
Размер потока : 110 Мбайт (10%)
Выравнивание : Разделение по промежуткам
Продолжительность промежутка : 40 мс. (1,00 видеокадр)
Время предзагрузки промежутка : 500 мс.
ServiceKind/String : Complete Main


Трекер:  [ 12-Окт-2017 21:30 ]

  

Скачать .torrent

Размер .torrent файла 11 KB


Размер: 1.1 GB
Хэш (hash) релиза: 1ec26a93508a61248ab5d153451b5d97e1d5d06c
Подписка на обновления:

Еще никто не оставлял запись к записи скачать торрент Случайный контакт Случайная помолвка . Будь первым!

!Обратная связь