Скачать через торрент музыку La Stanza del Figlio бесплатно без регистрации torrent

Если у вас наблюдаются проблемы со скриншотами, переходом по ссылками, скачиванием торрентов - проблемы в блокировщике рекламы AdBlock. #хорошегоДня!


Статистика раздачи
Размер:  97 MB   |    Зарегистрирован:  1 месяц 30 дней   |    .torrent скачан:  8 раз   |   
Раздают:  1  
   
Загрузка...
 
Автор Сообщение

Galfimbul

avatar Galfimbul


La Stanza del Figlio

Название альбома: La Stanza del Figlio
Жанр: Soundtrack
Композитор: Nicola Piovani
Год выпуска диска: 2001
Страна-производитель диска: Italy
Издатель (лейбл): Virgin
Номер по каталогу: 7243 8 10040 2 9
Аудиокодек: FLAC (*.flac)
Тип рипа: image+.cue
Битрейт аудио: lossless
Источник: собственный рип
Наличие сканов в содержимом раздачи: нет
Треклист:
01 - La Stanza Del Figlio
02 - La Corsa
03 - La Lettera Di Arianna
04 - Viaggio Nella Notte
05 - Soli
06 - Se Quel Giorno
07 - Andrea
08 - La Traduzione
09 - Domenica
10 - Scarabocchi
11 - Lungo Il Porto
12 - Ritorno In Città
13 - Caro Diario - Caro Diario
14 - Caro Diario - Il Campo Di Pallone
15 - Palombella Rossa - Palombella Rossa
16 - Palombella Rossa - Le Mamme Ci Asciugavano I Capelli
17 - La Messa È Finita - La Messa È Finita
18 - La Messa È Finita - Il Valzer Della Cioccolata
Exact Audio Copy V1.0 beta 3 from 29. August 2011

EAC extraction logfile from 9. October 2017, 19:41

Unknown Artist / Unknown Title

Used drive : MATSHITABD-MLT UJ260AF Adapter: 1 ID: 0

Read mode : SecureUtilize accurate stream : YesDefeat audio cache : YesMake use of C2 pointers : No

Read offset correction : 103Overread into Lead-In and Lead-Out : NoFill up missing offset samples with silence : YesDelete leading and trailing silent blocks : NoNull samples used in CRC calculations : YesUsed interface : Native Win32 interface for Win NT & 2000

Used output format : Internal WAV RoutinesSample format : 44.100 Hz; 16 Bit; Stereo

TOC of the extracted CD

Track | Start | Length | Start sector | End sector --------------------------------------------------------- 1 | 0:00.00 | 4:05.26 | 0 | 18400 2 | 4:05.26 | 3:41.70 | 18401 | 35045 3 | 7:47.21 | 2:23.45 | 35046 | 45815 4 | 10:10.66 | 1:32.31 | 45816 | 52746 5 | 11:43.22 | 2:32.68 | 52747 | 64214 6 | 14:16.15 | 1:40.00 | 64215 | 71714 7 | 15:56.15 | 2:29.02 | 71715 | 82891 8 | 18:25.17 | 3:33.49 | 82892 | 98915 9 | 21:58.66 | 3:56.03 | 98916 | 116618 10 | 25:54.69 | 2:51.66 | 116619 | 129509 11 | 28:46.60 | 2:32.69 | 129510 | 140978 12 | 31:19.54 | 1:20.49 | 140979 | 147027 13 | 32:40.28 | 2:02.63 | 147028 | 156240 14 | 34:43.16 | 1:07.62 | 156241 | 161327 15 | 35:51.03 | 2:57.25 | 161328 | 174627 16 | 38:48.28 | 2:39.18 | 174628 | 186570 17 | 41:27.46 | 1:44.50 | 186571 | 194420 18 | 43:12.21 | 2:22.62 | 194421 | 205132

Range status and errors

Selected range

Filename C:\Users\Administrator\Desktop\CDImage.wav

Peak level 99.9 % Extraction speed 3.8 X Range quality 100.0 % Copy CRC EFE9DF6B Copy OK

No errors occurred

AccurateRip summary

Track 1 cannot be verified as accurate (confidence 3) [321E2FE6], AccurateRip returned [678CC2D6] (AR v2)Track 2 cannot be verified as accurate (confidence 3) [D276265A], AccurateRip returned [0CFD8CAA] (AR v2)Track 3 cannot be verified as accurate (confidence 3) [F55ED429], AccurateRip returned [C5F3F479] (AR v2)Track 4 cannot be verified as accurate (confidence 3) [4DBB50E1], AccurateRip returned [C5A146F4] (AR v2)Track 5 cannot be verified as accurate (confidence 3) [47D44088], AccurateRip returned [B43DBC83] (AR v2)Track 6 cannot be verified as accurate (confidence 3) [2106CDB9], AccurateRip returned [8215E4CF] (AR v2)Track 7 cannot be verified as accurate (confidence 3) [DDF3916C], AccurateRip returned [E232C328] (AR v2)Track 8 cannot be verified as accurate (confidence 3) [C0DE6803], AccurateRip returned [E9A61D8D] (AR v2)Track 9 cannot be verified as accurate (confidence 3) [29920D0F], AccurateRip returned [D41ACBCB] (AR v2)Track 10 cannot be verified as accurate (confidence 3) [7FCB47D5], AccurateRip returned [CB434844] (AR v2)Track 11 cannot be verified as accurate (confidence 3) [F2115D06], AccurateRip returned [43523C07] (AR v2)Track 12 cannot be verified as accurate (confidence 3) [DA839BC6], AccurateRip returned [99347711] (AR v2)Track 13 cannot be verified as accurate (confidence 3) [4480BEA9], AccurateRip returned [FF275CEB] (AR v2)Track 14 cannot be verified as accurate (confidence 3) [189B10ED], AccurateRip returned [8588EE17] (AR v2)Track 15 cannot be verified as accurate (confidence 3) [6BDD4C26], AccurateRip returned [D822D300] (AR v2)Track 16 cannot be verified as accurate (confidence 3) [3C5381D8], AccurateRip returned [48687743] (AR v2)Track 17 cannot be verified as accurate (confidence 3) [B69C0D51], AccurateRip returned [451D19A9] (AR v2)Track 18 cannot be verified as accurate (confidence 3) [FCB2550C], AccurateRip returned [D3DA63C4] (AR v2)

No tracks could be verified as accurateYou may have a different pressing from the one(s) in the database

End of status report

---- CUETools DB Plugin V2.1.3

[CTDB TOCID: YKygueSI_vCaNV3q.O7rMInP4y8-] found, Submit result: YKygueSI_vCaNV3q.O7rMInP4y8- has been submitted[7eb4cb02] (8/8) No match
REM GENRE SoundtrackREM DATE 2001REM DISCID 060AAF12REM COMMENT "ExactAudioCopy v1.0b3"PERFORMER "Piovani, Nicola"TITLE "La Stanza Del Figlio"FILE "CDImage.flac" WAVE TRACK 01 AUDIO TITLE "La Stanza Del Figlio" PERFORMER "Piovani, Nicola" INDEX 01 00:00:00 TRACK 02 AUDIO TITLE "La Corsa" PERFORMER "Piovani, Nicola" INDEX 00 04:04:18 INDEX 01 04:05:26 TRACK 03 AUDIO TITLE "La Lettera Di Arianna" PERFORMER "Piovani, Nicola" INDEX 00 07:44:72 INDEX 01 07:47:21 TRACK 04 AUDIO TITLE "Viaggio Nella Notte" PERFORMER "Piovani, Nicola" INDEX 00 10:07:73 INDEX 01 10:10:66 TRACK 05 AUDIO TITLE "Soli" PERFORMER "Piovani, Nicola" INDEX 00 11:40:62 INDEX 01 11:43:22 TRACK 06 AUDIO TITLE "Se Quel Giorno" PERFORMER "Piovani, Nicola" INDEX 00 14:12:32 INDEX 01 14:16:15 TRACK 07 AUDIO TITLE "Andrea" PERFORMER "Piovani, Nicola" INDEX 00 15:52:70 INDEX 01 15:56:15 TRACK 08 AUDIO TITLE "La Traduzione" PERFORMER "Piovani, Nicola" INDEX 00 18:23:71 INDEX 01 18:25:17 TRACK 09 AUDIO TITLE "Domenica" PERFORMER "Piovani, Nicola" INDEX 00 21:54:64 INDEX 01 21:58:66 TRACK 10 AUDIO TITLE "Scarabocchi" PERFORMER "Piovani, Nicola" INDEX 01 25:54:69 TRACK 11 AUDIO TITLE "Lungo Il Porto" PERFORMER "Piovani, Nicola" INDEX 00 28:45:48 INDEX 01 28:46:60 TRACK 12 AUDIO TITLE "Ritorno In Città" PERFORMER "Piovani, Nicola" INDEX 00 31:17:47 INDEX 01 31:19:54 TRACK 13 AUDIO TITLE "Caro Diario - Caro Diario" PERFORMER "Piovani, Nicola" INDEX 00 32:38:14 INDEX 01 32:40:28 TRACK 14 AUDIO TITLE "Caro Diario - Il Campo Di Pallone" PERFORMER "Piovani, Nicola" INDEX 00 34:40:62 INDEX 01 34:43:16 TRACK 15 AUDIO TITLE "Palombella Rossa - Palombella Rossa" PERFORMER "Piovani, Nicola" INDEX 00 35:48:37 INDEX 01 35:51:03 TRACK 16 AUDIO TITLE "Palombella Rossa - Le Mamme Ci Asciugavano I Capelli" PERFORMER "Piovani, Nicola" INDEX 00 38:46:59 INDEX 01 38:48:28 TRACK 17 AUDIO TITLE "La Messa È Finita - La Messa È Finita" PERFORMER "Piovani, Nicola" INDEX 00 41:25:03 INDEX 01 41:27:46 TRACK 18 AUDIO TITLE "La Messa È Finita - Il Valzer Della Cioccolata" PERFORMER "Piovani, Nicola" INDEX 00 43:10:56 INDEX 01 43:12:21


Трекер:  [ 13-Окт-2017 00:06 ]

  

Скачать .torrent

Размер .torrent файла 15 KB


Размер: 97 MB
Хэш (hash) релиза: 6f7dd55272a2d42e7aa3c051db0535974eee6167

Еще никто не оставлял запись к записи скачать торрент La Stanza del Figlio . Будь первым!

!Обратная связь