Скачать через торрент музыку бесплатно без регистрации torrent

Если у вас наблюдаются проблемы со скриншотами, переходом по ссылками, скачиванием торрентов - проблемы в блокировщике рекламы AdBlock. #хорошегоДня!


Статистика раздачи
Размер:  799 MB   |    Зарегистрирован:  2 месяца   |    .torrent скачан:  10 раз   |   
Раздают:  1  
   
Загрузка...
 
Автор Сообщение

Galfimbul

avatar Galfimbul


VA ‎– Subsonic Meltdown

Жанр: Goa Trance, Downtempo, Ambient
Носитель: CD
Страна-производитель диска (релиза): Germany
Год издания: 1998
Издатель (лейбл): ID&T Music Germany
Номер по каталогу: 7000088
Аудиокодек: FLAC (*.flac)
Тип рипа: tracks+.cue
Битрейт аудио: lossless
Источник (релизер): Фирменный CD
Наличие сканов в содержимом раздачи: нет
Треклист:
CD1:
01 - Semsis - Border Hash
02 - Slide - Dry Heat
03 - Lumen - The Vwroodha
04 - Semsis & Marc van der Vlugt - Basso Profundo
05 - Tim Schuldt - Pretty Poison
06 - Slide & Marc van der Vlugt - Celestia
07 - Tarsis & DJ Kaya - A Higher Form Of Life
08 - Psychaos - Spacial Distortion
09 - Cydonia - Centre Point
CD2:
01 - Drug Squid - Intro
02 - Drug Squid - Sea Monsters
03 - Firefly - The Experiment
04 - Tarsis - Tantric
05 - Flashback - Datosphere
06 - M-Sphere - Dynamic Mouse
07 - Translucid - Dark Black
08 - Drug Squid - We Stared At The Sun
09 - a.M.p.S. - Outro
Exact Audio Copy V1.0 beta 1 from 15. November 2010

EAC extraction logfile from 22. June 2011, 13:36

Various / Subsonic Meltdown

Used drive : HL-DT-STDVD-RAM GSA-H55N Adapter: 4 ID: 0

Read mode : SecureUtilize accurate stream : YesDefeat audio cache : YesMake use of C2 pointers : No

Read offset correction : 102Overread into Lead-In and Lead-Out : NoFill up missing offset samples with silence : YesDelete leading and trailing silent blocks : NoNull samples used in CRC calculations : YesUsed interface : Installed external ASPI interfaceGap handling : Appended to previous track

Used output format : User Defined EncoderSelected bitrate : 128 kBit/sQuality : HighAdd ID3 tag : NoCommand line compressor : C:\Program Files\Exact Audio Copy\Flac\flac.exeAdditional command line options : -8 -V -T "ARTIST=%a" -T "TITLE=%t" -T "ALBUM=%g" -T "DATE=%y" -T "TRACKNUMBER=%n" -T "TOTALTRACKS=%x" -T "GENRE=%m" -T "ALBUMARTIST=%v" -T "ALBUM ARTIST=%v" -T "COMMENT=EAC Secure Mode, Test & Copy, AccurateRip, FLAC -8" %s

TOC of the extracted CD

Track | Start | Length | Start sector | End sector --------------------------------------------------------- 1 | 0:00.00 | 6:31.62 | 0 | 29386 2 | 6:31.62 | 7:01.27 | 29387 | 60988 3 | 13:33.14 | 6:53.70 | 60989 | 92033 4 | 20:27.09 | 7:15.64 | 92034 | 124722 5 | 27:42.73 | 7:54.39 | 124723 | 160311 6 | 35:37.37 | 7:24.18 | 160312 | 193629 7 | 43:01.55 | 8:17.00 | 193630 | 230904 8 | 51:18.55 | 7:48.58 | 230905 | 266062 9 | 59:07.38 | 7:21.74 | 266063 | 299211

Track 1

Filename D:\my rip\goa\VA\1998 - Subsonic Meltdown {ID&T Music Germany}\CD1\01 - Semsis - Border Hash.wav

Pre-gap length 0:00:02.00

Peak level 99.6 % Extraction speed 1.3 X Track quality 99.9 % Test CRC 43E0493A Copy CRC 43E0493A Cannot be verified as accurate (confidence 1) [16BFF21C], AccurateRip returned [0D1CA755] Copy OK

Track 2

Filename D:\my rip\goa\VA\1998 - Subsonic Meltdown {ID&T Music Germany}\CD1\02 - Slide - Dry Heat.wav

Peak level 99.6 % Extraction speed 1.9 X Track quality 99.9 % Test CRC 651405BF Copy CRC 651405BF Cannot be verified as accurate (confidence 1) [E2E1355A], AccurateRip returned [D766A5BA] Copy OK

Track 3

Filename D:\my rip\goa\VA\1998 - Subsonic Meltdown {ID&T Music Germany}\CD1\03 - Lumen - The Vwroodha.wav

Peak level 99.6 % Extraction speed 2.2 X Track quality 100.0 % Test CRC AC9C2EAD Copy CRC AC9C2EAD Cannot be verified as accurate (confidence 1) [4D74EDA1], AccurateRip returned [C355F4F9] Copy OK

Track 4

Filename D:\my rip\goa\VA\1998 - Subsonic Meltdown {ID&T Music Germany}\CD1\04 - Semsis & Marc van der Vlugt - Basso Profundo.wav

Peak level 99.6 % Extraction speed 2.5 X Track quality 100.0 % Test CRC 38E16975 Copy CRC 38E16975 Cannot be verified as accurate (confidence 1) [7D58EF65], AccurateRip returned [1DA752B6] Copy OK

Track 5

Filename D:\my rip\goa\VA\1998 - Subsonic Meltdown {ID&T Music Germany}\CD1\05 - Tim Schuldt - Pretty Poison.wav

Peak level 99.6 % Extraction speed 2.5 X Track quality 99.9 % Test CRC 5D6FF811 Copy CRC 5D6FF811 Cannot be verified as accurate (confidence 1) [3C11EAAE], AccurateRip returned [8565C658] Copy OK

Track 6

Filename D:\my rip\goa\VA\1998 - Subsonic Meltdown {ID&T Music Germany}\CD1\06 - Slide & Marc van der Vlugt - Celestia.wav

Peak level 99.6 % Extraction speed 2.9 X Track quality 100.0 % Test CRC C8DCAF15 Copy CRC C8DCAF15 Cannot be verified as accurate (confidence 1) [1B4C004F], AccurateRip returned [D0CAD586] Copy OK

Track 7

Filename D:\my rip\goa\VA\1998 - Subsonic Meltdown {ID&T Music Germany}\CD1\07 - Tarsis & DJ Kaya - A Higher Form Of Life.wav

Peak level 99.4 % Extraction speed 3.1 X Track quality 100.0 % Test CRC 101207DD Copy CRC 101207DD Cannot be verified as accurate (confidence 1) [91F8EFE9], AccurateRip returned [0E84D39D] Copy OK

Track 8

Filename D:\my rip\goa\VA\1998 - Subsonic Meltdown {ID&T Music Germany}\CD1\08 - Psychaos - Spacial Distortion.wav

Peak level 99.6 % Extraction speed 3.3 X Track quality 100.0 % Test CRC DB8DE882 Copy CRC DB8DE882 Cannot be verified as accurate (confidence 1) [5B14EB7A], AccurateRip returned [94AF2111] Copy OK

Track 9

Filename D:\my rip\goa\VA\1998 - Subsonic Meltdown {ID&T Music Germany}\CD1\09 - Cydonia - Centre Point.wav

Peak level 99.4 % Extraction speed 3.2 X Track quality 99.9 % Test CRC 39CF0D42 Copy CRC 39CF0D42 Cannot be verified as accurate (confidence 1) [3D8415BB], AccurateRip returned [39A1DF17] Copy OK

No tracks could be verified as accurateYou may have a different pressing from the one(s) in the database

No errors occurred

End of status report

==== Log checksum C19243D3D24E50E5D7A9C213F811C7C4049771F33D96535C41340A91159F8CB1 ====
Exact Audio Copy V1.0 beta 1 from 15. November 2010

EAC extraction logfile from 22. June 2011, 15:02

Various / Subsonic Meltdown

Used drive : HL-DT-STDVD-RAM GSA-H55N Adapter: 4 ID: 0

Read mode : SecureUtilize accurate stream : YesDefeat audio cache : YesMake use of C2 pointers : No

Read offset correction : 102Overread into Lead-In and Lead-Out : NoFill up missing offset samples with silence : YesDelete leading and trailing silent blocks : NoNull samples used in CRC calculations : YesUsed interface : Installed external ASPI interfaceGap handling : Appended to previous track

Used output format : User Defined EncoderSelected bitrate : 128 kBit/sQuality : HighAdd ID3 tag : NoCommand line compressor : C:\Program Files\Exact Audio Copy\Flac\flac.exeAdditional command line options : -8 -V -T "ARTIST=%a" -T "TITLE=%t" -T "ALBUM=%g" -T "DATE=%y" -T "TRACKNUMBER=%n" -T "TOTALTRACKS=%x" -T "GENRE=%m" -T "ALBUMARTIST=%v" -T "ALBUM ARTIST=%v" -T "COMMENT=EAC Secure Mode, Test & Copy, AccurateRip, FLAC -8" %s

TOC of the extracted CD

Track | Start | Length | Start sector | End sector --------------------------------------------------------- 1 | 0:00.00 | 2:11.67 | 0 | 9891 2 | 2:11.67 | 10:09.18 | 9892 | 55584 3 | 12:21.10 | 5:37.31 | 55585 | 80890 4 | 17:58.41 | 8:56.35 | 80891 | 121125 5 | 26:55.01 | 7:33.46 | 121126 | 155146 6 | 34:28.47 | 9:37.36 | 155147 | 198457 7 | 44:06.08 | 7:31.17 | 198458 | 232299 8 | 51:37.25 | 8:37.37 | 232300 | 271111 9 | 60:14.62 | 1:00.31 | 271112 | 275642

Track 1

Filename D:\my rip\goa\VA\1998 - Subsonic Meltdown {ID&T Music Germany}\CD2\01 - Drug Squid - Intro.wav

Pre-gap length 0:00:02.00

Peak level 99.3 % Extraction speed 0.9 X Track quality 99.8 % Test CRC 9610429E Copy CRC 9610429E Accurately ripped (confidence 1) [F384479F] Copy OK

Track 2

Filename D:\my rip\goa\VA\1998 - Subsonic Meltdown {ID&T Music Germany}\CD2\02 - Drug Squid - Sea Monsters.wav

Peak level 99.6 % Extraction speed 2.0 X Track quality 100.0 % Test CRC 27478BE7 Copy CRC 27478BE7 Accurately ripped (confidence 1) [5808C574] Copy OK

Track 3

Filename D:\my rip\goa\VA\1998 - Subsonic Meltdown {ID&T Music Germany}\CD2\03 - Firefly - The Experiment.wav

Peak level 99.5 % Extraction speed 2.2 X Track quality 100.0 % Test CRC 3CB43ECC Copy CRC 3CB43ECC Accurately ripped (confidence 1) [D0C9FCBA] Copy OK

Track 4

Filename D:\my rip\goa\VA\1998 - Subsonic Meltdown {ID&T Music Germany}\CD2\04 - Tarsis - Tantric.wav

Peak level 99.6 % Extraction speed 2.5 X Track quality 100.0 % Test CRC C59193AB Copy CRC C59193AB Cannot be verified as accurate (confidence 1) [B0EF1622], AccurateRip returned [FC0E0234] Copy OK

Track 5

Filename D:\my rip\goa\VA\1998 - Subsonic Meltdown {ID&T Music Germany}\CD2\05 - Flashback - Datosphere.wav

Peak level 99.6 % Extraction speed 2.5 X Track quality 99.9 % Test CRC 43A4C362 Copy CRC 43A4C362 Accurately ripped (confidence 1) [164589AB] Copy OK

Track 6

Filename D:\my rip\goa\VA\1998 - Subsonic Meltdown {ID&T Music Germany}\CD2\06 - M-Sphere - Dynamic Mouse.wav

Peak level 98.6 % Extraction speed 2.8 X Track quality 99.9 % Test CRC 07237626 Copy CRC 07237626 Accurately ripped (confidence 1) [62B67CB8] Copy OK

Track 7

Filename D:\my rip\goa\VA\1998 - Subsonic Meltdown {ID&T Music Germany}\CD2\07 - Translucid - Dark Black.wav

Peak level 99.6 % Extraction speed 3.2 X Track quality 100.0 % Test CRC 62353188 Copy CRC 62353188 Accurately ripped (confidence 1) [365256E7] Copy OK

Track 8

Filename D:\my rip\goa\VA\1998 - Subsonic Meltdown {ID&T Music Germany}\CD2\08 - Drug Squid - We Stared At The Sun.wav

Peak level 99.6 % Extraction speed 3.4 X Track quality 100.0 % Test CRC 80FDCAD0 Copy CRC 80FDCAD0 Accurately ripped (confidence 1) [9872F622] Copy OK

Track 9

Filename D:\my rip\goa\VA\1998 - Subsonic Meltdown {ID&T Music Germany}\CD2\09 - a.M.p.S. - Outro.wav

Peak level 50.7 % Extraction speed 2.2 X Track quality 100.0 % Test CRC 92638A73 Copy CRC 92638A73 Accurately ripped (confidence 1) [23AF1C32] Copy OK

8 track(s) accurately ripped 1 track(s) could not be verified as accurate

Some tracks could not be verified as accurate

No errors occurred

End of status report

==== Log checksum D8F598777CD726DF121733BF4A97ED536C05436AF6C7088EF44060F1E718EA3C ====
CD1:REM GENRE PsychedelicREM DATE 1998REM DISCID 7F0F9509REM COMMENT "ExactAudioCopy v1.0b1"PERFORMER "Various"TITLE "Subsonic Meltdown"FILE "01 - Semsis - Border Hash.wav" WAVE TRACK 01 AUDIO TITLE "Border Hash" PERFORMER "Semsis" INDEX 01 00:00:00FILE "02 - Slide - Dry Heat.wav" WAVE TRACK 02 AUDIO TITLE "Dry Heat" PERFORMER "Slide" INDEX 01 00:00:00FILE "03 - Lumen - The Vwroodha.wav" WAVE TRACK 03 AUDIO TITLE "The Vwroodha" PERFORMER "Lumen" INDEX 01 00:00:00FILE "04 - Semsis & Marc van der Vlugt - Basso Profundo.wav" WAVE TRACK 04 AUDIO TITLE "Basso Profundo" PERFORMER "Semsis & Marc van der Vlugt" INDEX 01 00:00:00FILE "05 - Tim Schuldt - Pretty Poison.wav" WAVE TRACK 05 AUDIO TITLE "Pretty Poison" PERFORMER "Tim Schuldt" INDEX 01 00:00:00FILE "06 - Slide & Marc van der Vlugt - Celestia.wav" WAVE TRACK 06 AUDIO TITLE "Celestia" PERFORMER "Slide & Marc van der Vlugt" INDEX 01 00:00:00FILE "07 - Tarsis & DJ Kaya - A Higher Form Of Life.wav" WAVE TRACK 07 AUDIO TITLE "A Higher Form Of Life" PERFORMER "Tarsis & DJ Kaya" INDEX 01 00:00:00FILE "08 - Psychaos - Spacial Distortion.wav" WAVE TRACK 08 AUDIO TITLE "Spacial Distortion" PERFORMER "Psychaos" INDEX 01 00:00:00FILE "09 - Cydonia - Centre Point.wav" WAVE TRACK 09 AUDIO TITLE "Centre Point" PERFORMER "Cydonia" INDEX 01 00:00:00

CD2:REM GENRE PsychedelicREM DATE 1998REM DISCID 710E5B09REM COMMENT "ExactAudioCopy v1.0b1"PERFORMER "Various"TITLE "Subsonic Meltdown"FILE "01 - Drug Squid - Intro.wav" WAVE TRACK 01 AUDIO TITLE "Intro" PERFORMER "Drug Squid" INDEX 01 00:00:00FILE "02 - Drug Squid - Sea Monsters.wav" WAVE TRACK 02 AUDIO TITLE "Sea Monsters" PERFORMER "Drug Squid" INDEX 01 00:00:00FILE "03 - Firefly - The Experiment.wav" WAVE TRACK 03 AUDIO TITLE "The Experiment" PERFORMER "Firefly" INDEX 01 00:00:00FILE "04 - Tarsis - Tantric.wav" WAVE TRACK 04 AUDIO TITLE "Tantric" PERFORMER "Tarsis" INDEX 01 00:00:00FILE "05 - Flashback - Datosphere.wav" WAVE TRACK 05 AUDIO TITLE "Datosphere" PERFORMER "Flashback" INDEX 01 00:00:00FILE "06 - M-Sphere - Dynamic Mouse.wav" WAVE TRACK 06 AUDIO TITLE "Dynamic Mouse" PERFORMER "M-Sphere" INDEX 01 00:00:00FILE "07 - Translucid - Dark Black.wav" WAVE TRACK 07 AUDIO TITLE "Dark Black" PERFORMER "Translucid" INDEX 01 00:00:00FILE "08 - Drug Squid - We Stared At The Sun.wav" WAVE TRACK 08 AUDIO TITLE "We Stared At The Sun" PERFORMER "Drug Squid" INDEX 01 00:00:00FILE "09 - a.M.p.S. - Outro.wav" WAVE TRACK 09 AUDIO TITLE "Outro" PERFORMER "a.M.p.S." INDEX 01 00:00:00
CD1:Started at: пятница, 13. 10. 2017. - 8:13.439 files found

1 -===- f:\Music G\bulenat\1998 - Subsonic Meltdown {ID&T Music Germany}\CD1\01 - Semsis - Border Hash.flac Extracted successfully Conclusion: this track is CDDA with probability 100% Tempfile successfully deleted.

2 -===- f:\Music G\bulenat\1998 - Subsonic Meltdown {ID&T Music Germany}\CD1\02 - Slide - Dry Heat.flac Extracted successfully Conclusion: this track is CDDA with probability 100% Tempfile successfully deleted.

3 -===- f:\Music G\bulenat\1998 - Subsonic Meltdown {ID&T Music Germany}\CD1\03 - Lumen - The Vwroodha.flac Extracted successfully Conclusion: this track is CDDA with probability 100% Tempfile successfully deleted.

4 -===- f:\Music G\bulenat\1998 - Subsonic Meltdown {ID&T Music Germany}\CD1\04 - Semsis & Marc van der Vlugt - Basso Profundo.flac Extracted successfully Conclusion: this track is CDDA with probability 100% Tempfile successfully deleted.

5 -===- f:\Music G\bulenat\1998 - Subsonic Meltdown {ID&T Music Germany}\CD1\05 - Tim Schuldt - Pretty Poison.flac Extracted successfully Conclusion: this track is CDDA with probability 100% Tempfile successfully deleted.

6 -===- f:\Music G\bulenat\1998 - Subsonic Meltdown {ID&T Music Germany}\CD1\06 - Slide & Marc van der Vlugt - Celestia.flac Extracted successfully Conclusion: this track is CDDA with probability 100% Tempfile successfully deleted.

7 -===- f:\Music G\bulenat\1998 - Subsonic Meltdown {ID&T Music Germany}\CD1\07 - Tarsis & DJ Kaya - A Higher Form Of Life.flac Extracted successfully Conclusion: this track is CDDA with probability 100% Tempfile successfully deleted.

8 -===- f:\Music G\bulenat\1998 - Subsonic Meltdown {ID&T Music Germany}\CD1\08 - Psychaos - Spacial Distortion.flac Extracted successfully Conclusion: this track is CDDA with probability 99% Tempfile successfully deleted.

9 -===- f:\Music G\bulenat\1998 - Subsonic Meltdown {ID&T Music Germany}\CD1\09 - Cydonia - Centre Point.flac Extracted successfully Conclusion: this track is CDDA with probability 99% Tempfile successfully deleted.

Finished at: пятница, 13. 10. 2017. - 8:16.20 (operation time: 0:02.36)

CD2:Started at: пятница, 13. 10. 2017. - 8:18.159 files found

1 -===- f:\Music G\bulenat\1998 - Subsonic Meltdown {ID&T Music Germany}\CD2\01 - Drug Squid - Intro.flac Extracted successfully Conclusion: this track is CDDA with probability 100% Tempfile successfully deleted.

2 -===- f:\Music G\bulenat\1998 - Subsonic Meltdown {ID&T Music Germany}\CD2\02 - Drug Squid - Sea Monsters.flac Extracted successfully Conclusion: this track is CDDA with probability 100% Tempfile successfully deleted.

3 -===- f:\Music G\bulenat\1998 - Subsonic Meltdown {ID&T Music Germany}\CD2\03 - Firefly - The Experiment.flac Extracted successfully Conclusion: this track is CDDA with probability 87% Tempfile successfully deleted.

4 -===- f:\Music G\bulenat\1998 - Subsonic Meltdown {ID&T Music Germany}\CD2\04 - Tarsis - Tantric.flac Extracted successfully Conclusion: this track is CDDA with probability 100% Tempfile successfully deleted.

5 -===- f:\Music G\bulenat\1998 - Subsonic Meltdown {ID&T Music Germany}\CD2\05 - Flashback - Datosphere.flac Extracted successfully Conclusion: this track is CDDA with probability 100% Tempfile successfully deleted.

6 -===- f:\Music G\bulenat\1998 - Subsonic Meltdown {ID&T Music Germany}\CD2\06 - M-Sphere - Dynamic Mouse.flac Extracted successfully Conclusion: this track is CDDA with probability 100% Tempfile successfully deleted.

7 -===- f:\Music G\bulenat\1998 - Subsonic Meltdown {ID&T Music Germany}\CD2\07 - Translucid - Dark Black.flac Extracted successfully Conclusion: this track is CDDA with probability 100% Tempfile successfully deleted.

8 -===- f:\Music G\bulenat\1998 - Subsonic Meltdown {ID&T Music Germany}\CD2\08 - Drug Squid - We Stared At The Sun.flac Extracted successfully Conclusion: this track is CDDA with probability 100% Tempfile successfully deleted.

9 -===- f:\Music G\bulenat\1998 - Subsonic Meltdown {ID&T Music Germany}\CD2\09 - a.M.p.S. - Outro.flac Extracted successfully Conclusion: this track is MPEG with probability 93% Tempfile successfully deleted.

Finished at: пятница, 13. 10. 2017. - 8:20.40 (operation time: 0:02.24)
ПРОСЬБА НЕ ПОКИДАТЬ РАЗДАЧУ

Трекер:  [ 13-Окт-2017 08:30 ]

  

Скачать .torrent

Размер .torrent файла 17 KB


Размер: 799 MB
Хэш (hash) релиза: 0b080acafb743e67219cafe42ec8ce1a07ccaf2a

Еще никто не оставлял запись к записи скачать торрент . Будь первым!

!Обратная связь