Скачать через торрент музыку бесплатно без регистрации torrent

Если у вас наблюдаются проблемы со скриншотами, переходом по ссылками, скачиванием торрентов - проблемы в блокировщике рекламы AdBlock. #хорошегоДня!


Статистика раздачи
Размер:  501 MB   |    Зарегистрирован:  2 месяца 2 дня   |    .torrent скачан:  5 раз   |   
Раздают:  1  
   
Загрузка...
 
Автор Сообщение

Galfimbul

avatar Galfimbul


Der Dritte Raum / Mental Modulator

Жанр: Trance, Hard Trance
Носитель: CD
Страна-производитель диска (релиза): USA
Год издания: 1995
Издатель (лейбл): Harthouse
Номер по каталогу: HH1007-2
Аудиокодек: FLAC (*.flac)
Тип рипа: image+.cue
Битрейт аудио: lossless
Источник (релизер): Фирменный CD
Наличие сканов в содержимом раздачи: нет
Треклист:
1. Stella
2. Magnetic Fields
3. Montiee
4. Mechanoid
5. Tunnel
6. Lyquit (DNA-Klone)
7. M50
Exact Audio Copy V0.99 prebeta 4 from 23. January 2008

Отчёт EAC об извлечении, выполненном 24. января 2009, 9:55

Der Dritte Raum / Mental Modulator

Дисковод: Optiarc DVD RW AD-7203S Adapter: 2 ID: 1

Режим чтения : ДостоверностьИспользование точного потока : ДаОтключение кэша аудио : ДаИспользование указателей C2 : Нет

Коррекция смещения при чтении : 48Способность читать области Lead-in и Lead-out : НетЗаполнение пропущенных сэмплов тишиной : ДаУдаление блоков с тишиной в начале и конце : НетПри вычислениях CRC использовались нулевые сэмплы : ДаИнтерфейс : Встроенный Win32-интерфейс для Win NT/2000

Выходной формат : Пользовательский кодировщикВыбранный битрейт : 1024 kBit/sКачество : ВысокийДобавление ID3-тэга : НетУтилита сжатия : C:\Program Files\FLAC\flac.exeДополнительные параметры : -8 -V -T "ARTIST=%a" -T "TITLE=%t" -T "ALBUM=%g" -T "DATE=%y" -T "TRACKNUMBER=%n" -T "GENRE=%m" -T "COMMENT=EAC FLAC -8" %s

TOC извлечённого CD

Трек | Старт | Длительность | Начальный сектор | Конечный сектор --------------------------------------------------------------------- 1 | 0:00.00 | 12:32.28 | 0 | 56427 2 | 12:32.28 | 8:06.72 | 56428 | 92949 3 | 20:39.25 | 11:35.50 | 92950 | 145124 4 | 32:15.00 | 8:43.73 | 145125 | 184422 5 | 40:58.73 | 7:40.05 | 184423 | 218927 6 | 48:39.03 | 13:16.60 | 218928 | 278687 7 | 61:55.63 | 10:29.45 | 278688 | 325907

Характеристики диапазона извлечения и сообщения об ошибках

Выбранный диапазон

Имя файла G:\Свои\Der Dritte Raum - Mental Modulator - 1995\Der Dritte Raum - Mental Modulator.wav

Пиковый уровень 97.7 % Качество диапазона 100.0 % CRC теста 8742DF1D CRC копии 8742DF1D Копирование... OK

Ошибок не произошло

AccurateRip: сводка

Трек 1 точное извлечение (доверие 1) [B3F58037]Трек 2 точное извлечение (доверие 1) [83E8E77B]Трек 3 точное извлечение (доверие 1) [F3D64177]Трек 4 точное извлечение (доверие 1) [48B376FB]Трек 5 точное извлечение (доверие 1) [CE67A8A6]Трек 6 точное извлечение (доверие 1) [46933A08]Трек 7 точное извлечение (доверие 1) [D4DB3436]

Все треки извлечены точно

Конец отчёта
REM GENRE ElectronicREM DATE 1995REM DISCID 5A10F907REM COMMENT "ExactAudioCopy v0.99pb4"PERFORMER "Der Dritte Raum"TITLE "Mental Modulator"FILE "Der Dritte Raum - Mental Modulator.flac" WAVE TRACK 01 AUDIO TITLE "Stella" PERFORMER "Der Dritte Raum" INDEX 01 00:00:00 TRACK 02 AUDIO TITLE "Magnetic Fields" PERFORMER "Der Dritte Raum" INDEX 01 12:32:28 TRACK 03 AUDIO TITLE "Montiee" PERFORMER "Der Dritte Raum" INDEX 01 20:39:25 TRACK 04 AUDIO TITLE "Mechanoid" PERFORMER "Der Dritte Raum" INDEX 01 32:15:00 TRACK 05 AUDIO TITLE "Tunnel" PERFORMER "Der Dritte Raum" INDEX 01 40:58:73 TRACK 06 AUDIO TITLE "Lyquit (DNA-klone)" PERFORMER "Der Dritte Raum" INDEX 01 48:39:03 TRACK 07 AUDIO TITLE "M50" PERFORMER "Der Dritte Raum" INDEX 01 61:55:63
Started at: пятница, 13. 10. 2017. - 9:08.341 file found

1 -===- f:\Music G\bulenat\Der Dritte Raum - Mental Modulator - 1995\Der Dritte Raum - Mental Modulator.flac Extracted successfully Conclusion: this track is CDDA with probability 100% Tempfile successfully deleted.

Finished at: пятница, 13. 10. 2017. - 9:10.54 (operation time: 0:02.19)
ПРОСЬБА НЕ ПОКИДАТЬ РАЗДАЧУ

Трекер:  [ 13-Окт-2017 09:30 ]

  

Скачать .torrent

Размер .torrent файла 20 KB


Размер: 501 MB
Хэш (hash) релиза: f9441ef6441a90ff59572396f3610072761277a5

Еще никто не оставлял запись к записи скачать торрент . Будь первым!

!Обратная связь