Скачать через торрент музыку бесплатно без регистрации torrent

Если у вас наблюдаются проблемы со скриншотами, переходом по ссылками, скачиванием торрентов - проблемы в блокировщике рекламы AdBlock. #хорошегоДня!


Статистика раздачи
Размер:  434 MB   |    Зарегистрирован:  2 месяца 2 дня   |    .torrent скачан:  5 раз   |   
Раздают:  1  
   
Загрузка...
 
Автор Сообщение

Galfimbul

avatar Galfimbul


DJ Dede ‎– Deck Wizards - Enhanced Reality

Жанр: Goa Trance, Psy-Trance
Носитель: CD
Страна-производитель диска (релиза): England
Год издания: 1999
Издатель (лейбл): Psychic Deli
Номер по каталогу: PDCD 09
Аудиокодек: FLAC (*.flac)
Тип рипа: image+.cue
Битрейт аудио: lossless
Источник (релизер): Фирменный CD
Наличие сканов в содержимом раздачи: нет
Треклист:
1. Slide & Marc van der Vlugt - Spontaneous Human Combustion (Burning Man Mix)
2. Phoetus - Sparkling Soup (Unreleased Mix)
3. Absolum - Drumatrix
4. Cat On Mushroom -Expose
5. Infected Mushroom - Muddy Effect
6. Xerox - Tune In
7. Oforia - Aftershock
8. Talamasca - The Flow
9. X-Dream - Freak (Future Prophecy Remix)
Exact Audio Copy V0.99 prebeta 4 from 23. January 2008

Отчёт EAC об извлечении, выполненном 24. января 2009, 13:58

Various / Deck Wizards: DJ Dede - Enhanced Reality

Дисковод: Optiarc DVD RW AD-7203S Adapter: 2 ID: 1

Режим чтения : ДостоверностьИспользование точного потока : ДаОтключение кэша аудио : ДаИспользование указателей C2 : Нет

Коррекция смещения при чтении : 48Способность читать области Lead-in и Lead-out : НетЗаполнение пропущенных сэмплов тишиной : ДаУдаление блоков с тишиной в начале и конце : НетПри вычислениях CRC использовались нулевые сэмплы : ДаИнтерфейс : Встроенный Win32-интерфейс для Win NT/2000

Выходной формат : Пользовательский кодировщикВыбранный битрейт : 1024 kBit/sКачество : ВысокийДобавление ID3-тэга : НетУтилита сжатия : C:\Program Files\FLAC\flac.exeДополнительные параметры : -8 -V -T "ARTIST=%a" -T "TITLE=%t" -T "ALBUM=%g" -T "DATE=%y" -T "TRACKNUMBER=%n" -T "GENRE=%m" -T "COMMENT=EAC FLAC -8" %s

TOC извлечённого CD

Трек | Старт | Длительность | Начальный сектор | Конечный сектор --------------------------------------------------------------------- 1 | 0:00.00 | 7:12.27 | 0 | 32426 2 | 7:12.27 | 5:57.43 | 32427 | 59244 3 | 13:09.70 | 8:09.42 | 59245 | 95961 4 | 21:19.37 | 7:20.58 | 95962 | 129019 5 | 28:40.20 | 7:11.50 | 129020 | 161394 6 | 35:51.70 | 6:32.67 | 161395 | 190861 7 | 42:24.62 | 7:06.48 | 190862 | 222859 8 | 49:31.35 | 7:09.52 | 222860 | 255086 9 | 56:41.12 | 8:28.58 | 255087 | 293244

Характеристики диапазона извлечения и сообщения об ошибках

Выбранный диапазон

Имя файла G:\Свои\обновленные\DJ Dede - Deck Wizards - Enhanced Reality - 1999\Various - Deck Wizards DJ Dede - Enhanced Reality.wav

Пиковый уровень 98.8 % Качество диапазона 100.0 % CRC теста F6CB950B CRC копии F6CB950B Копирование... OK

Ошибок не произошло

AccurateRip: сводка

Трек 1 точное извлечение (доверие 2) [953446AC]Трек 2 точное извлечение (доверие 2) [AAF7DE4F]Трек 3 точное извлечение (доверие 2) [D7A27953]Трек 4 точное извлечение (доверие 2) [6D59DC6D]Трек 5 точное извлечение (доверие 2) [A9EB8C42]Трек 6 точное извлечение (доверие 2) [22CC7259]Трек 7 точное извлечение (доверие 2) [EFD28443]Трек 8 точное извлечение (доверие 2) [4CB9365D]Трек 9 точное извлечение (доверие 2) [2BC22FA2]

Все треки извлечены точно

Конец отчёта
REM GENRE PsychedelicREM DATE 1999REM DISCID 710F4509REM COMMENT "ExactAudioCopy v0.99pb4"PERFORMER "Various"TITLE "Deck Wizards: DJ Dede - Enhanced Reality"FILE "Various - Deck Wizards DJ Dede - Enhanced Reality.flac" WAVE TRACK 01 AUDIO TITLE "Spontaneous Human Combustion (Burning Man)" PERFORMER "Slide & Marc van der Vlugt" INDEX 01 00:00:00 TRACK 02 AUDIO TITLE "Sparkling Soup (Unreleased Mix)" PERFORMER "Phoetus" INDEX 01 07:12:27 TRACK 03 AUDIO TITLE "Drumatrix" PERFORMER "Absolum" INDEX 01 13:09:70 TRACK 04 AUDIO TITLE "Expose" PERFORMER "Cat on Mushroom" INDEX 01 21:19:37 TRACK 05 AUDIO TITLE "Muddy Effect" PERFORMER "Infected Mushroom" INDEX 01 28:40:20 TRACK 06 AUDIO TITLE "Tune In" PERFORMER "Xerox" INDEX 01 35:51:70 TRACK 07 AUDIO TITLE "Aftershock" PERFORMER "Oforia" INDEX 01 42:24:62 TRACK 08 AUDIO TITLE "The Flow" PERFORMER "Talamasca" INDEX 01 49:31:35 TRACK 09 AUDIO TITLE "Freak" PERFORMER "Future Prophecy" INDEX 01 56:41:12
AUDIOCHECKER v2.0 beta (build 457) - by Dester - opdester@freemail.hu~~~~~~~~~~~~~~~~~~~~~~~~~~~~~~~~~~-=== DO NOT EDIT THIS FILE! ===-

Path: ...\DJ Dede - Deck Wizards - Enhanced Reality - 1999

1 -=- Various - Deck Wizards DJ Dede - Enhanced Reality.flac -=- CDDA (100%)

233246980
ПРОСЬБА НЕ ПОКИДАТЬ РАЗДАЧУ

Трекер:  [ 13-Окт-2017 10:01 ]

  

Скачать .torrent

Размер .torrent файла 17 KB


Размер: 434 MB
Хэш (hash) релиза: 240872b84600bed64bed38bd88bafd4a749b3ea1

Еще никто не оставлял запись к записи скачать торрент . Будь первым!

!Обратная связь