Скачать через торрент Невеста чародея: В ожидании путеводной звезды Mahou Tsukai no Yome: Hoshi Matsu Hito бесплатно Аниме Все серии на русском torrent

Если у вас наблюдаются проблемы со скриншотами, переходом по ссылками, скачиванием торрентов - проблемы в блокировщике рекламы AdBlock. #хорошегоДня!


Статистика раздачи
Размер:  1.04 GB   |    Зарегистрирован:  1 месяц 30 дней   |    .torrent скачан:  12 раз   |   
Раздают:  1  
   
Загрузка...
 
Автор Сообщение

Galfimbul

avatar Galfimbul


Невеста чародея: В ожидании путеводной звезды / Mahou Tsukai no Yome: Hoshi Matsu Hito
Страна: Япония
Год выпуска: 2016
Жанр: приключения, фэнтези
Тип: OVA
Продолжительность: 3 эп, ~24 мин. серия
Режиссер: Наганума Норихиро
Студия: Описание: Начало аниме переносит нас в Соединенное Королевство Великобритании и прекрасный ночной город Лондон, где, пока неизвестная нам чародейка по-имени Анжелика, готовит посылку нашей главной героине. Героиню зовут Хатори Чисэ. До событий данного аниме у неё была очень жестокая жизнь. Мать покончила жизнь самоубийством, так как не могла принять столь странное дитя. А Чисэ в глазах окружающих была именно такой. Она видела странных существ, которые для неё были омерзительными и вызывали холодный пот по спине. Будь-то обычный завтрак, прогулка, беседа с кем-то, эти существа не просто были в дали от неё, они всячески мешали ей жить, вводя Чисэ в ещё больший ужас.
Люди, которые пытались проявлять к ней заботу, в итоге впадали в истерику, ибо они так же как и мать Чисэ, не понимали что с ней происходит. Однажды она просто сбегает ото всех в лес, где находит удивительное для себя место. Здание, которое внутри представляло из себя огромную библиотеку и человек, единственный кто понял, что с Чисэ не так. Он сказал, что существа, которых она видит, не могут проникнуть в это места, а сам он являлся хранителем леса, чтобы это не значило. Так Чисэ наконец-то удалось обрести душевный покой, а впереди её ждали необычайные приключения.Перевод: Zottig
Редактор: AleX_MytH
Озвучивание: многоголосое [Дитрий Дробница & Ivaniska & AKEKS KV & Клюква]
Тайминг: Huck'MasterOK
Обложка: MadAkella
Работа со звуком: Hatiko
Релиз от: Качество: WEBRip [HorribleSubs]
Тип релиза: Без хардсаба
Формат видео: MKV
Совместимость с бытовыми плеерами: Нет
Видео: x264 (8 bit), 1280x720, 1776 kbps, 23.976 fps
Аудио: [int] AAC, 192 kbps, 48 KHz, 2 ch
Аудио 2: [int] AAC, 128 kbps, 48 KHz, 2 ch
Субтитры: [int, ASS] Форсированные (надписи)
Субтитры 2: [int, ASS] Полные
GeneralUnique ID : 250486171235249374931458810210990873239 (0xBC71E1BC936428A6BACC75010CDADA97)Complete name : E:\CactusTeam\[CactusTeam]_Mahou_Tsukai_no_Yome_OVA_(x264_720p_AAC)_[MVO]\[CactusTeam]_Mahou_Tsukai_no_Yome_OVA_[01]_(x264_720p_AAC)_[MVO].mkvFormat : MatroskaFormat version : Version 4 / Version 2File size : 345 MiBDuration : 23 min 3 sOverall bit rate : 2 094 kb/sEncoded date : UTC 2017-10-11 19:16:26Writing application : mkvmerge v9.7.1 ('Pandemonium') 64bitWriting library : libebml v1.3.4 + libmatroska v1.4.5

VideoID : 1Format : AVCFormat/Info : Advanced Video CodecFormat profile : High@L4Format settings, CABAC : YesFormat settings, ReFrames : 6 framesCodec ID : V_MPEG4/ISO/AVCDuration : 23 min 3 sBit rate : 1 776 kb/sWidth : 1 280 pixelsHeight : 720 pixelsDisplay aspect ratio : 16:9Frame rate mode : VariableFrame rate : 23.976 (23976/1000) FPSColor space : YUVChroma subsampling : 4:2:0Bit depth : 8 bitsScan type : ProgressiveBits/(Pixel*Frame) : 0.080Stream size : 292 MiB (85%)Writing library : x264 core 120 r2120 0c7dab9Encoding settings : cabac=1 / ref=6 / deblock=1:1:1 / analyse=0x3:0x113 / me=umh / subme=8 / psy=1 / psy_rd=0.40:0.00 / mixed_ref=1 / me_range=16 / chroma_me=1 / trellis=1 / 8x8dct=1 / cqm=0 / deadzone=21,11 / fast_pskip=1 / chroma_qp_offset=-2 / threads=4 / sliced_threads=0 / nr=0 / decimate=1 / interlaced=0 / bluray_compat=0 / constrained_intra=0 / bframes=3 / b_pyramid=2 / b_adapt=2 / b_bias=0 / direct=3 / weightb=1 / open_gop=0 / weightp=2 / keyint=250 / keyint_min=23 / scenecut=40 / intra_refresh=0 / rc_lookahead=50 / rc=2pass / mbtree=1 / bitrate=1776 / ratetol=1.0 / qcomp=0.60 / qpmin=0 / qpmax=69 / qpstep=4 / cplxblur=20.0 / qblur=0.5 / vbv_maxrate=3552 / vbv_bufsize=8880 / nal_hrd=none / ip_ratio=1.40 / aq=1:0.60Language : JapaneseDefault : YesForced : Yes

Audio #1ID : 2Format : AACFormat/Info : Advanced Audio CodecFormat profile : LCCodec ID : A_AACDuration : 23 min 3 sBit rate : 192 kb/sChannel(s) : 2 channelsChannel positions : Front: L RSampling rate : 48.0 kHzFrame rate : 46.875 FPS (1024 spf)Compression mode : LossyStream size : 31.7 MiB (9%)Title : MVO [CactusTeam]Language : RussianDefault : YesForced : Yes

Audio #2ID : 3Format : AACFormat/Info : Advanced Audio CodecFormat profile : LCCodec ID : A_AACDuration : 23 min 3 sBit rate : 128 kb/sChannel(s) : 2 channelsChannel positions : Front: L RSampling rate : 44.1 kHzFrame rate : 43.066 FPS (1024 spf)Compression mode : LossyStream size : 21.1 MiB (6%)Title : OriginalLanguage : JapaneseDefault : NoForced : No

Text #1ID : 4Format : ASSCodec ID : S_TEXT/ASSCodec ID/Info : Advanced Sub Station AlphaDuration : 12 min 29 sBit rate : 13 b/sCount of elements : 7Compression mode : LosslessStream size : 1.19 KiB (0%)Title : Форсированные (надписи)Language : RussianDefault : YesForced : Yes

Text #2ID : 5Format : ASSCodec ID : S_TEXT/ASSCodec ID/Info : Advanced Sub Station AlphaDuration : 22 min 32 sBit rate : 92 b/sCount of elements : 227Compression mode : LosslessStream size : 15.2 KiB (0%)Title : ПолныеLanguage : RussianDefault : NoForced : No
Альтернативная озвучка:...5375484
...5285863
...5280702
...5462120


Трекер:  [ 13-Окт-2017 11:01 ]

  

Скачать .torrent

Размер .torrent файла 11 KB


Размер: 1.04 GB
Хэш (hash) релиза: 823a4c3e5898e6c13256466a8654b7aa9e6a1e2d
Подписка на обновления:

Еще никто не оставлял запись к записи скачать торрент Невеста чародея: В ожидании путеводной звезды Mahou Tsukai no Yome: Hoshi Matsu Hito . Будь первым!

!Обратная связь