Скачать порно через торрент молодёжные потрахушки UnionPeer.org бесплатно онлайн HD качество

Скачать новое порно 2015, 2014 новинки через торрент UnionPeer.org

Порно торрент бесплатно ЮнионПир.орг

Если у вас наблюдаются проблемы со скриншотами, переходом по ссылками, скачиванием торрентов - проблемы в блокировщике рекламы AdBlock. #хорошегоДня!


Статистика раздачи
Размер:  90 MB   |    Зарегистрирован:  2 месяца 2 дня   |    .torrent скачан:  1377 раз   |   
Раздают:  4  
   
Загрузка...
 
Автор Сообщение

Galfimbul

avatar Galfimbul


молодёжные потрахушки

Год производства: 2017 г.
Жанр: Homemade, All Sex
Продолжительность: 00:08:27

Описание: Просто милая девочка захотела. Отказать невозможно. Возможно любоваться. Обработала хорошенечко член ручками, ротиком и язычком и, не забыв (как учила мама) сказать: «нет, нее-е-еет!», с радостью и удовольствием взгромоздилась на прекрасно стоящий плод трудов своих. В позе «наездница» девочка оказалась трахолюбива и неутомима. Но всё-таки паренёк маленько сжалился и дал ей немного отдохнуть в колено-локтевой, в ней она оказалась ещё более трахолюбчива и неустанна. Пришлось вернуть в «наездницу». Тут-то паренёк и приплыл. Как правильная и хорошая девочка, она проворно накинулась ртом на излияния. Тут и сказочке конец; кто смотрел, тот молодец.
Паренёк сначала снимал аж с двух рук. Может быть, девка просила снять и на её телефон тоже. Но она и без этих домыслов достаточно членолюбива и нимфоманьячна.
Красавицей её, конечно, не назвать, но красоткой – запросто! Всё на месте: и наливная грудь, и увесистая попка, и тонкая талия. Зубки белые, волосики шелковистые и густые, глазки умные и похотливые. Красотка, ччё!
Паренёк очень старался запечатлеть действо в самых разных ракурсах, но без калейдоскопа, с чувством, толком, расстановкой, в лучших традициях Gonzo & POV.
Приятного просмотра.

Доп. информация:
General
Complete name : Intim_s_sosedkoi.mp4
Format : MPEG-4
Format profile : Base Media
Codec ID : isom (isom/iso2/avc1/mp41)
File size : 89.7 MiB
Duration : 8 min 27 s
Overall bit rate mode : Variable
Overall bit rate : 1 484 kb/s
Writing application : Lavf57.25.100
Comment : U2FsdGVkX1/ju7CLwi/oqRqS77pPUhpnDwi418FxwWGz18VHtTpxbODUbNnS3PnukmucIqqQ5TA=

Video
ID : 1
Format : AVC
Format/Info : Advanced Video Codec
Format profile : Baseline@L3.1
Format settings, CABAC : No
Format settings, RefFrames : 1 frame
Codec ID : avc1
Codec ID/Info : Advanced Video Coding
Duration : 8 min 27 s
Bit rate : 1 313 kb/s
Width : 848 pixels
Height : 480 pixels
Display aspect ratio : 16:9
Frame rate mode : Constant
Frame rate : 30.000 FPS
Color space : YUV
Chroma subsampling : 4:2:0
Bit depth : 8 bits
Scan type : Progressive
Bits/(Pixel*Frame) : 0.108
Stream size : 80.3 MiB (90%)
Writing library : x264 core 148 r2643 5c65704
Encoding settings : cabac=0 / ref=1 / deblock=1:0:0 / analyse=0x1:0x111 / me=hex / subme=7 / psy=1 / psy_rd=1.00:0.00 / mixed_ref=0 / me_range=16 / chroma_me=1 / trellis=1 / 8x8dct=0 / cqm=0 / deadzone=21,11 / fast_pskip=1 / chroma_qp_offset=-2 / threads=3 / lookahead_threads=1 / sliced_threads=0 / nr=0 / decimate=1 / interlaced=0 / bluray_compat=0 / constrained_intra=0 / bframes=0 / weightp=0 / keyint=250 / keyint_min=25 / scenecut=40 / intra_refresh=0 / rc_lookahead=40 / rc=abr / mbtree=1 / bitrate=1313 / ratetol=1.0 / qcomp=0.60 / qpmin=10 / qpmax=51 / qpstep=4 / ip_ratio=1.41 / aq=1:1.00

Audio
ID : 2
Format : AAC
Format/Info : Advanced Audio Codec
Format profile : LC
Codec ID : 40
Duration : 8 min 27 s
Bit rate mode : Variable
Bit rate : 149 kb/s
Maximum bit rate : 192 kb/s
Channel(s) : 2 channels
Channel positions : Front: L R
Sampling rate : 44.1 kHz
Frame rate : 43.066 FPS (1024 SPF)
Compression mode : Lossy
Stream size : 8.99 MiB (10%)
Default : Yes
Alternate group : 1
Качество видео: SiteRip
Формат видео: MP4
Видео: AVC, 848x480, 30.000 fps, 1 313 kb/s
Аудио: AAC, 149 kbps, 44,1 Khz, 2 channels, 1 stream

Трекер:  [ 13-Окт-2017 11:10 ]

  

Скачать .torrent

Размер .torrent файла 14 KB


Размер: 90 MB
Хэш (hash) релиза: ee916e05f2efe3a78691b1a28bd5f97d2cef4d0a

Еще никто не оставлял запись к записи скачать торрент молодёжные потрахушки . Будь первым!

!Обратная связь