Скачать через торрент Флэш The Flash Фильм бесплатно в хорошем качестве torrent

Скачивайте на UnionPeer.org фильмы через торрент без регистрации. Новинки кино в хорошем качестве через торрент. На UnionPeer.org можно скачать через торрент фильмы 2014 и 2015 годов. Самые новые фильмы.

Скачать торрент Флэш The Flash бесплатно через .torrent фильм мультфильм сериал

Если у вас наблюдаются проблемы со скриншотами, переходом по ссылками, скачиванием торрентов - проблемы в блокировщике рекламы AdBlock. #хорошегоДня!


Статистика раздачи
Размер:  1.08 GB   |    Зарегистрирован:  1 месяц 29 дней   |    .torrent скачан:  14 раз   |   
Раздают:  1  
   
Загрузка...
 
Автор Сообщение

Galfimbul

avatar Galfimbul


Флэш | The Flash
Год выпуска: 2017
Страна: США
Жанр: фантастика, фэнтези, боевик, драма, приключения
Продолжительность: ~ 00:43:00Перевод: Профессиональный (многоголосый закадровый) | Good People
Режиссёр: Дэвид НаттерВ ролях: Грант Гастин, Кэндис Паттон, Рик Коснетт, Даниэль Панабэйкер, Карлос Вальдес, Томас Кэвэна, Джесси Л. Мартин, Джон Уэсли Шипп, Стивен Амелл, Ёсиэ Бэнкрофт и др.Описание: Из-за несчастного случая судмедэксперт Барри Аллен приобретает способность передвигаться с невероятной скоростью. Этот случай делает из него супергероя, которым он всегда мечтал стать. Защищая город, как ангел-хранитель, делая невозможное, спасая жизни со скоростью вспышки, по подсказке Оливера Куина (Стрела), он берёт себе и соответствующее имя - Флэш. | Качество: HDTVRip 720p
Формат: MKV
Видео: X264, 1280x720 (16:9), 23.976 fps, ~3500 kbps
Аудио 1: AC3, 48 kHz, 2.0 ch, 192 kbps, CBR - Rus
Аудио 2: AC3, 48 kHz, 5.1 ch, 384 kbps, CBR - Eng
Субтитры: отсутствуютРеклама: Присутствует звуковая (два раза в начале и конце по 12 сек.)
Общее
Уникальный идентификатор                 : 179579578587168850948928652380115753102 (0x8719C4CEC694E6FB8AA99AFC922ED88E)
Полное имя                               : F:\GoodPeople\The Flash. Season 4 (HDTVRip l 720p l Good People)\The.Flash.S04E01.720p.HDTV.X264-GoodPeople.mkv
Формат                                   : Matroska
Версия формата                           : Version 2
Размер файла                             : 1,08 Гбайт
Продолжительность                        : 42 м. 26 с.
Общий поток                              : 3626 Кбит/сек
Дата кодирования                         : UTC 2017-10-13 08:06:13
Программа кодирования                    : mkvmerge v7.8.0 ('River Man') 32bit built on Apr  3 2015 12:11:22
Библиотека кодирования                   : libebml v1.3.1 + libmatroska v1.4.2

Видео
Идентификатор                            : 1
Формат                                   : AVC
Формат/Информация                        : Advanced Video Codec
Профиль формата                          : High@L4.1
Параметр CABAC формата                   : Да
Параметр RefFrames формата               : 9 кадров
Идентификатор кодека                     : V_MPEG4/ISO/AVC
Продолжительность                        : 42 м. 26 с.
Битрейт                                  : 2978 Кбит/сек
Ширина                                   : 1280 пикселей
Высота                                   : 720 пикселей
Соотношение сторон                       : 16:9
Режим частоты кадров                     : Постоянный
Частота кадров                           : 23,976 (24000/1001) кадра/сек
Цветовое пространство                    : YUV
Субдискретизация насыщенности            : 4:2:0
Битовая глубина                          : 8 бит
Тип развёртки                            : Прогрессивная
Бит/(Пиксели*Кадры)                      : 0.135
Размер потока                            : 904 Мбайт (82%)
Библиотека кодирования                   : x264 core 152 r2851 ba24899
Настройки программы                      : cabac=1 / ref=9 / deblock=1:-2:-2 / analyse=0x3:0x133 / me=umh / subme=10 / psy=1 / psy_rd=1.00:0.00 / mixed_ref=1 / me_range=32 / chroma_me=1 / trellis=2 / 8x8dct=1 / cqm=0 / deadzone=21,11 / fast_pskip=0 / chroma_qp_offset=-2 / threads=16 / lookahead_threads=1 / sliced_threads=0 / nr=0 / decimate=1 / interlaced=0 / bluray_compat=0 / constrained_intra=0 / bframes=5 / b_pyramid=2 / b_adapt=2 / b_bias=0 / direct=3 / weightb=1 / open_gop=0 / weightp=2 / keyint=250 / keyint_min=23 / scenecut=40 / intra_refresh=0 / rc_lookahead=60 / rc=crf / mbtree=1 / crf=18.0 / qcomp=0.60 / qpmin=0 / qpmax=69 / qpstep=4 / ip_ratio=1.40 / aq=1:1.00
Язык                                     : English
Default                                  : Да
Forced                                   : Нет
Цветовой диапазон                        : Limited
Коэффициенты матрицы                     : BT.709

Аудио #1
Идентификатор                            : 2
Формат                                   : AC-3
Формат/Информация                        : Audio Coding 3
Параметр Endianness формата              : Big
Идентификатор кодека                     : A_AC3
Продолжительность                        : 42 м. 26 с.
Вид битрейта                             : Постоянный
Битрейт                                  : 192 Кбит/сек
Каналы                                   : 2 канала
Расположение каналов                     : Front: L R
Частота                                  : 48,0 КГц
Частота кадров                           : 31,250 кадров/сек (1536 spf)
Битовая глубина                          : 16 бит
Метод сжатия                             : С потерями
Размер потока                            : 58,3 Мбайт (5%)
Заголовок                                : GoodPeople
Язык                                     : Russian
ServiceKind/String                       : Complete Main
Default                                  : Да
Forced                                   : Нет

Аудио #2
Идентификатор                            : 3
Формат                                   : AC-3
Формат/Информация                        : Audio Coding 3
Параметр Endianness формата              : Big
Идентификатор кодека                     : A_AC3
Продолжительность                        : 42 м. 26 с.
Вид битрейта                             : Постоянный
Битрейт                                  : 384 Кбит/сек
Каналы                                   : 6 каналов
Расположение каналов                     : Front: L C R, Side: L R, LFE
Частота                                  : 48,0 КГц
Частота кадров                           : 31,250 кадров/сек (1536 spf)
Битовая глубина                          : 16 бит
Метод сжатия                             : С потерями
Размер потока                            : 117 Мбайт (11%)
Язык                                     : English
ServiceKind/String                       : Complete Main
Default                                  : Нет
Forced                                   : Нет
Когда раздача ведётся путём добавления новых серий, при каждом добавлении создётся новый торрент. Чтобы начать докачку новой серии, пользователям необходимо сделать следующее:
(1) остановить скачивание,
(2) удалить старый торрент у себя из клиента (старые серии удалять не надо),
(3) скачать новый торрент и запустить его у себя в клиенте вместо старого, при этом указать клиенту путь в старую папку, куда и должно происходить скачивание новых серий.
Ваш клиент при этом должен произвести хеширование (проверку) старой папки (если не производит сам - помогите ему сделать это), и будет докачивать только те серии, которых у вас ещё нет. Старые серии при этом не удаляются, а продолжают раздаваться!
Eсли вы уже удалили старые серии, то предотвратить повторную закачку старых серий можно, отжав галочку в соответсвующих местах при запуске нового торрента. По возможности, желательно не удалять старые серии как можно дольше, чтобы релизёр не столько продолжал раздавать старые серии, а смог сконцентрироваться на новых.


Трекер:  [ 13-Окт-2017 11:24 ]

  

Скачать .torrent

Размер .torrent файла 11 KB


Размер: 1.08 GB
Хэш (hash) релиза: f0008b5a2841098c9322d325bbcbfedf652d138b
Подписка на обновления:

Торренты, похожие на Флэш The Flash скачать торрент

Форум Название Автор Размер S L Добавлен
Зарубежные сериалы ·· Флэш / The Flash / Сезон: 4 / Серии: 1 из 23 (Дэвид Наттер / David Nutter) [2017, США, фантастика, боевик, драма, криминал, WEB-DL 1080p] Original + Rus Sub (SFI) Galfimbul 35107405273.27 GB 0 0 1508266489

21:54

17-Окт-17

Зарубежные сериалы ·· Флэш / The Flash / Сезон: 4 / Серии: 1 из 23 (Дэвид Наттер) [2017, США, фантастика, фэнтези, боевик, драма, приключения, WEB-DLRip] MVO (Jaskier) Galfimbul 530423808506 MB 0 0 1507933509

01:25

14-Окт-17

Зарубежные сериалы ·· Флэш / The Flash / Сезон: 4 / Серии: 1 из 23 (Дэвид Наттер) [2017, США, фантастика, фэнтези, боевик, драма, приключения, WEB-DL 720p] MVO (Jaskier) Galfimbul 12507740181.16 GB 0 0 1507933495

01:24

14-Окт-17

Зарубежные сериалы ·· Флэш / The Flash / Сезон: 4 / Серии: 1 из 23 (Дэвид Наттер) [2017, США, фантастика, фэнтези, боевик, драма, приключения, HDTVRip] MVO (Good People) Galfimbul 524793856500 MB 0 0 1507883038

11:23

13-Окт-17

Зарубежные сериалы ·· Флэш / The Flash / Сезон: 4 / Серии: 1 из 23 (Дэвид Наттер) [2017, США, фантастика, фэнтези, боевик, драма, приключения, WEB-DLRip] MVO (LostFilm) Galfimbul 530407424506 MB 2 0 1507840113

23:28

12-Окт-17

Зарубежные сериалы ·· Флэш / The Flash / Сезон: 4 / Серии: 1 из 23 (Дэвид Наттер / David Nutter) [2017, США, Фантастика, боевик, драма, приключения, WEBRip 1080p] MVO (Alternative Production) + Original Galfimbul 37603838293.5 GB 0 0 1507839906

23:25

12-Окт-17

Зарубежные сериалы ·· Флэш / The Flash / Сезон: 4 / Серии: 1 из 23 (Дэвид Наттер) [2017, США, фантастика, боевик, драма, приключения, WEB-DLRip] DVO (Gears Media) Galfimbul 561244330535 MB 0 0 1507832836

21:27

12-Окт-17

Зарубежные сериалы ·· Флэш / The Flash / Сезон: 4 / Серии: 1-5 из 23 (Дэвид Наттер / David Nutter) [2017, США, фантастика, боевик, драма, криминал, WEBRip 720p] MVO (LostFilm) + Original + Subs (Eng) Galfimbul 59475703085.54 GB 0 0 1510692901

23:55

14-Ноя-17

Зарубежные сериалы ·· Флэш / The Flash / Сезон: 4 / Серии: 1-9 из 23 (Дэвид Наттер) [2017, США, фантастика, фэнтези, боевик, драма, приключения, WEB-DLRip] MVO (Jaskier) Galfimbul 47547310084.43 GB 0 0 1510065232

17:33

7-Ноя-17

Зарубежные сериалы ·· Флэш / The Flash / Сезон: 4 / Серии: 1-9 из 23 (Дэвид Наттер) [2017, США, фантастика, фэнтези, боевик, драма, приключения, WEBRip] MVO (Good People) + Original Galfimbul 47508787204.42 GB 0 0 1510064093

17:14

7-Ноя-17

Зарубежные сериалы ·· Флэш / The Flash / Сезон: 3 / Серии: 1-4 из 23 (Дэвид Наттер) [2016, США, Фантастика, боевик, драма, приключения, WEB-DLRip] MVO (LostFilm) + Original Galfimbul 35328778243.29 GB 0 0 1478636435

23:20

8-Ноя-16

Зарубежные сериалы ·· Флэш / The Flash / Сезон: 3 / Серии: 1-4 из 23 (Дэвид Наттер) [2016, США, фантастика, фэнтези, боевик, драма, приключения, WEB-DL 1080p] MVO (LostFilm) + Original + Sub (Eng) Galfimbul 75798040997.06 GB 0 0 1477729186

11:19

29-Окт-16

Зарубежные сериалы ·· Флэш / The Flash / Сезон: 3 / Серии: 1-4 из 23 (Дэвид Наттер) [2016, США, фантастика, фэнтези, боевик, драма, приключения, HDTVRip] MVO (Студия Jaskier) + Original Galfimbul 16393932801.53 GB 1 4 1477671408

19:16

28-Окт-16

Зарубежные сериалы ·· Флэш / The Flash / Сезон: 3 / Серии: 1-4 из 23 (Дэвид Наттер) [2016, США, фантастика, фэнтези, боевик, драма, приключения, HDTVRip 720p] MVO (Студия Jaskier) + Original Galfimbul 36443519323.39 GB 1 3 1477629669

07:41

28-Окт-16

Зарубежные сериалы ·· Флэш / The Flash / Сезон: 3 / Серии: 1-4 из 23 (Дэвид Наттер) [2016, США, фантастика, фэнтези, боевик, драма, приключения, WEB-DLRip] MVO (LostFilm) Galfimbul 20996915201.96 GB 0 0 1477592548

21:22

27-Окт-16

Зарубежные сериалы ·· Флэш / The Flash / Сезон: 2 / Серии: 1-4 из 23 (Дэвид Наттер) [2015, фантастика, фэнтези, боевик, драма, приключения, WEB-DLRip] MVO (NewStudio) Galfimbul 22753812482.12 GB 0 0 1446072614

01:50

29-Окт-15

Зарубежные сериалы ·· Флэш / Молния / Флеш/ The Flash / Сезон: 2 / Серии: 1-4 из 23 (Дэвид Наттер) [2015, фантастика, фэнтези, боевик, драма, приключения, HDTVRip 720p] MVO (Студия Jaskier) + Original Galfimbul 40695002483.79 GB 0 0 1446074172

02:16

29-Окт-15

Еще никто не оставлял запись к записи скачать торрент Флэш The Flash . Будь первым!

!Обратная связь