torrent

, , - AdBlock. #!


949 MB   |    :  2 4    |    .torrent :  22    |   
1  
   
...
 

Galfimbul

avatar Galfimbul




5.274 / 10 / 10
: 2017
:
: ,
: 01:32:35

:
:
C:
:
:
: , ,
:
: ,
: ,
: , , , -, , , , , ,

: $2 475 459

(): 14 2017,

: . ! , . , , . , , , , . : WEB-DL 1080p
: WEB-DLRip
: SD (480p)
: M4V
: H.264, 640x358 852358, 2.40:1, 1 300 Kbps, 23.976 (24000/1001) fps

: / , AAC / 2.0 / 128 Kbps / 48.0 KHz
Sort Name:
XID: Apple:vendor_id:2017-921501
contentID: 1290257843
Copyright: 2017 , , CGF
Screenwriters:
Producers: , ,
Director:
Cast: , , , -, , , , , ,
Studio: , , CGF
Rating: 134
Long Description: . ! , . , , "" . , , , , .
Description: . ! , .
Release Date: 2017-01-01T08:00:00Z
Genre:
Artist:
Name:
General
Complete name : /Users/imac/HandBrake/Naparnik.(480p).(pk)..m4v
Format : MPEG-4
Codec ID : M4V (M4V /M4A /mp42/isom)
File size : 949 MiB
Duration : 1h 32mn
Overall bit rate mode : Variable
Overall bit rate : 1 433 Kbps
Movie name :
Performer :
Director :
Actor : / / / - / / / / / /
Screenplay by :
Producer : / /
Production studio : , , CGF
Genre :
ContentType : Short Film
Description : . ! , .
Recorded date : UTC 2017-01-01 08:00:00
Encoded date : UTC 2017-10-13 10:02:46
Tagged date : UTC 2017-10-13 10:08:46
Copyright : 2017 , , CGF
Cover : Yes
Rating : None
Title/Sort :
LongDescription : . ! , . , , "" . , , , , .
AppleStoreCatalogID : 1290257843
Vendor : Apple:vendor_id:2017-921501
ContentRating : ru-movie|12+|200|

Video #1
ID : 1
Format : AVC
Format/Info : Advanced Video Codec
Format profile : Baseline@L3
Format settings : 2 Ref Frames
Format settings, CABAC : No
Format settings, ReFrames : 2 frames
Codec ID : avc1
Codec ID/Info : Advanced Video Coding
Duration : 1h 32mn
Bit rate : 1 300 Kbps
Width : 640 pixels
Height : 358 pixels
Display aspect ratio : 2.40:1
Original display aspect ratio : 2.40:1
Frame rate mode : Variable
Frame rate : 23.976 (24000/1001) fps
Minimum frame rate : 23.974 fps
Maximum frame rate : 23.981 fps
Color space : YUV
Chroma subsampling : 4:2:0
Bit depth : 8 bits
Scan type : Progressive
Bits/(Pixel*Frame) : 0.237
Stream size : 861 MiB (91%)
Title : Main Program
Writing library : x264 core 148 r2708 86b7198
Encoding settings : cabac=0 / ref=2 / deblock=1:0:0 / analyse=0x1:0x111 / me=umh / subme=6 / psy=1 / psy_rd=1.00:0.00 / mixed_ref=1 / me_range=16 / chroma_me=1 / trellis=0 / 8x8dct=0 / cqm=0 / deadzone=21,11 / fast_pskip=1 / chroma_qp_offset=-2 / threads=11 / lookahead_threads=1 / sliced_threads=0 / nr=0 / decimate=1 / interlaced=0 / bluray_compat=0 / constrained_intra=0 / bframes=0 / weightp=0 / keyint=240 / keyint_min=24 / scenecut=40 / intra_refresh=0 / rc_lookahead=40 / rc=2pass / mbtree=1 / bitrate=1300 / ratetol=1.0 / qcomp=0.60 / qpmin=0 / qpmax=69 / qpstep=4 / cplxblur=20.0 / qblur=0.5 / vbv_maxrate=5000 / vbv_bufsize=5000 / nal_hrd=none / filler=0 / ip_ratio=1.40 / aq=1:1.00
Language : Russian
Encoded date : UTC 2017-10-13 10:02:46
Tagged date : UTC 2017-10-13 10:02:49
Color range : Limited
Color primaries : BT.709
Transfer characteristics : BT.709
Matrix coefficients : BT.709
Menus : 3,4

Video #2
ID : 4
Format : JPEG
Codec ID : jpeg
Duration : 1h 32mn
Bit rate mode : Variable
Bit rate : 985 bps
Width : 640 pixels
Height : 268 pixels
Display aspect ratio : 2.40:1
Frame rate mode : Variable
Frame rate : 0.003 fps
Minimum frame rate : 0.001 fps
Maximum frame rate : 0.004 fps
Color space : YUV
Chroma subsampling : 4:2:0
Bit depth : 8 bits
Compression mode : Lossy
Bits/(Pixel*Frame) : 1.914
Stream size : 561 KiB (0%)
Title : Chapter Images
Language : Russian
Default : No
Encoded date : UTC 2017-10-13 10:02:55
Tagged date : UTC 2017-10-13 10:02:55
Menu For : 1

Audio
ID : 2
Format : AAC
Format/Info : Advanced Audio Codec
Format profile : LC
Codec ID : mp4a-40-2
Duration : 1h 32mn
Bit rate mode : Variable
Bit rate : 127 Kbps
Maximum bit rate : 173 Kbps
Channel(s) : 2 channels
Channel positions : Front: L R
Sampling rate : 48.0 KHz
Frame rate : 46.875 fps (1024 SPF)
Compression mode : Lossy
Stream size : 83.9 MiB (9%)
Title : Russian Stereo
Language : Russian
Default : Yes
Alternate group : 1
Encoded date : UTC 2017-10-13 10:02:47
Tagged date : UTC 2017-10-13 10:02:53

Menu #1
00:00:00.000 : 1
00:07:11.958 : 2
00:13:16.041 : 3
00:20:34.041 : 4
00:27:24.874 : 5
00:32:59.874 : 6
00:38:10.749 : 7
00:45:00.332 : 8
00:49:46.832 : 9
00:57:03.165 : 10
01:03:57.123 : 11
01:10:10.123 : 12
01:16:10.081 : 13
01:20:38.581 : 14

Menu #2
ID : 3
Codec ID : text
Duration : 1h 32mn
Language : Russian
Encoded date : UTC 2017-10-13 10:02:53
Tagged date : UTC 2017-10-13 10:02:53
Menu For : 1
00:00:00.000 : 1
00:07:11.958 : 2
00:13:16.041 : 3
00:20:34.041 : 4
00:27:24.874 : 5
00:32:59.874 : 6
00:38:10.749 : 7
00:45:00.332 : 8
00:49:46.832 : 9
00:57:03.165 : 10
01:03:57.123 : 11
01:10:10.123 : 12
01:16:10.081 : 13
01:20:38.581 : 14
Bit rate mode : VBR
x264 [info]: frame I:2400 Avg QP:15.68 size: 29950
x264 [info]: frame P:130799 Avg QP:18.67 size: 6351
x264 [info]: mb I I16..4: 16.7% 0.0% 83.3%
x264 [info]: mb P I16..4: 0.8% 0.0% 2.3% P16..4: 45.8% 22.4% 9.0% 0.0% 0.0% skip:19.7%
x264 [info]: coded y,uvDC,uvAC intra: 72.9% 86.0% 68.9% inter: 24.7% 23.7% 7.3%
x264 [info]: i16 v,h,dc,p: 40% 16% 9% 35%
x264 [info]: i4 v,h,dc,ddl,ddr,vr,hd,vl,hu: 35% 15% 13% 5% 7% 8% 6% 7% 5%
x264 [info]: i8c dc,h,v,p: 45% 16% 30% 10%
x264 [info]: ref P L0: 72.9% 27.1%
x264 [info]: kb/s:1299.75
Apple TV, iPad, iPhone, iPod Touch.
Windows VLC media player

 ·  , , FAQ-
:  [ 13--2017 13:42 ]

  

.torrent

.torrent 37 KB


: 949 MB
(hash) : 59b02a7c54bce27a65df0e1e8a4b0350817de8eb
··
...

. !

!