Скачать через торрент Время первых Фильм бесплатно в хорошем качестве torrent

Скачивайте на UnionPeer.org фильмы через торрент без регистрации. Новинки кино в хорошем качестве через торрент. На UnionPeer.org можно скачать через торрент фильмы 2014 и 2015 годов. Самые новые фильмы.

Скачать торрент Время первых бесплатно через .torrent фильм мультфильм сериал

Если у вас наблюдаются проблемы со скриншотами, переходом по ссылками, скачиванием торрентов - проблемы в блокировщике рекламы AdBlock. #хорошегоДня!


Статистика раздачи
Размер:  5.68 GB   |    Зарегистрирован:  1 месяц 16 дней   |    .torrent скачан:  563 раза   |   
Раздают:  2  
   
Загрузка...
 
Автор Сообщение

Galfimbul

avatar Galfimbul



Время первых
«Подними голову!»
Год выхода: 2017
Страна: Россия
Жанр: приключения, триллер
Продолжительность: 02:14:38
Перевод: Не требуется | Лицензия
Субтитры: Отсутствуют

Режиссер: Дмитрий Киселёв
В ролях: Евгений Миронов, Константин Хабенский, Владимир Ильин, Анатолий Котенёв, Александра Урсуляк, Елена Панова, Александр Новин, Марта Тимофеева, Геннадий Смирнов, Юрий Нифонтов

О фильме: 60-е. Разгар холодной войны. Две супердержавы, СССР и США бьются за первенство в космической гонке. Пока СССР впереди, на очереди — выход человека в открытый космос.
За две недели до старта взрывается тестовый корабль. Времени на выявление причин нет. И пусть риски огромны, мы не можем уступить лидерство.
Опытный военный летчик Павел Беляев и его напарник Алексей Леонов, необстрелянный и горячий, мечтающий о подвиге, — два человека, готовые шагнуть в неизвестность. Но никто не мог даже предположить всего, с чем им предстояло столкнуться в полете. В этой миссии все, что только можно, пошло не так…


Качество: BDRip 1080p
Формат: mkv
Видео кодек: AVC
Аудио кодек: DTS
Видео: 1920x816, 23.976 fps, 4423 Кбит/с
Аудио: 1509 kb/s, 6 ch, 48.0 KHz
<div class="code_wrap"> <div class="code_head"> <p style="float: left;">Код:</p> <script type="text/javascript"> copyText_writeLink('this.parentNode.parentNode.nextSibling.nextSibling'); </script> </div><!--/code_head--> <div class="code">General
Unique ID : 226161670955795697005932748722590183880 (0xAA2527479FAF5F64AED79CE8CC43F1C8)
Complete name : D:\Фильмы\Vrem9.Perv1h.2017.O.BDRip.1080p.mkv
Format : Matroska
Format version : Version 4 / Version 2
File size : 5.68 GiB
Duration : 2 h 16 min
Overall bit rate : 5 934 kb/s
Movie name : MoreFilms.TV
Encoded date : UTC 2017-10-28 20:05:33
Writing application : mkvmerge v11.0.0 ('Alive') 64bit
Writing library : libebml v1.3.4 + libmatroska v1.4.5

Video
ID : 1
Format : AVC
Format/Info : Advanced Video Codec
Format profile : <a href="/cdn-cgi/l/email-protection" class="__cf_email__" data-cfemail="6921000e0129255d4758">[email protected]</a>
Format settings, CABAC : Yes
Format settings, ReFrames : 5 frames
Codec ID : V_MPEG4/ISO/AVC
Duration : 2 h 16 min
Bit rate : 4 423 kb/s
Width : 1 920 pixels
Height : 816 pixels
Display aspect ratio : 2.35:1
Frame rate mode : Constant
Frame rate : 23.976 (24000/1001) FPS
Color space : YUV
Chroma subsampling : 4:2:0
Bit depth : 8 bits
Scan type : Progressive
Bits/(Pixel*Frame) : 0.118
Stream size : 4.23 GiB (75%)
Writing library : x264 core 152 r2851 ba24899
Encoding settings : cabac=1 / ref=5 / deblock=1:-3:-3 / analyse=0x3:0x133 / me=umh / subme=8 / psy=1 / psy_rd=1.00:0.15 / mixed_ref=1 / me_range=16 / chroma_me=1 / trellis=1 / 8x8dct=1 / cqm=0 / deadzone=21,11 / fast_pskip=0 / chroma_qp_offset=-3 / threads=12 / lookahead_threads=2 / sliced_threads=0 / nr=0 / decimate=1 / interlaced=0 / bluray_compat=0 / constrained_intra=0 / bframes=3 / b_pyramid=2 / b_adapt=1 / b_bias=0 / direct=3 / weightb=1 / open_gop=0 / weightp=2 / keyint=240 / keyint_min=23 / scenecut=40 / intra_refresh=0 / rc_lookahead=40 / rc=crf / mbtree=1 / crf=20.0 / qcomp=0.60 / qpmin=10 / qpmax=69 / qpstep=4 / ip_ratio=1.40 / aq=1:1.00
Language : English
Default : Yes
Forced : No

Audio
ID : 2
Format : DTS
Format/Info : Digital Theater Systems
Mode : 16
Format settings, Endianness : Big
Codec ID : A_DTS
Duration : 2 h 16 min
Bit rate mode : Constant
Bit rate : 1 509 kb/s
Channel(s) : 6 channels
Channel positions : Front: L C R, Side: L R, LFE
Sampling rate : 48.0 kHz
Frame rate : 93.750 FPS (512 spf)
Bit depth : 24 bits
Compression mode : Lossy
Stream size : 1.44 GiB (25%)
Language : Russian
Default : Yes
Forced : No

Menu
00:00:00.000 : en:00:00:00.000
00:09:43.249 : en:00:09:43.249
00:18:49.169 : en:00:18:49.169
00:30:08.056 : en:00:30:08.056
00:41:19.894 : en:00:41:19.894
00:51:33.924 : en:00:51:33.924
01:00:20.783 : en:01:00:20.783
01:09:47.308 : en:01:09:47.308
01:18:29.538 : en:01:18:29.538
01:30:06.901 : en:01:30:06.901
01:39:16.158 : en:01:39:16.158
01:49:17.175 : en:01:49:17.175
02:00:26.469 : en:02:00:26.469
02:11:54.740 : en:02:11:54.740 </div><!--/code--></div><!--/code_wrap-->
Бюджет: 400 000 000 руб.
Сборы в России: $9 901 675

Дата мировой премьеры: 6 апреля 2017
Дата российской премьеры: 6 апреля 2017, «Bazelevs Distribution»


Трекер:  [ 01-Ноя-2017 12:54 ]

  

Скачать .torrent

Размер .torrent файла 14 KB


Размер: 5.68 GB
Хэш (hash) релиза: 2ee0ef89ae75f8336dee153af773ba8e6c44666f
Подписка на обновления:

Торренты, похожие на Время первых скачать торрент

Форум Название Автор Размер S L Добавлен
Российские фильмы до 2016 ·· Время первых (Дмитрий Киселёв) [2017, Россия, приключения, триллер, BDRip] [GER-Transfer] Galfimbul 15665909761.46 GB 2 0 1511378954

22:29

22-Ноя-17

Российские фильмы до 2016 ·· Время первых (Дмитрий Киселёв) [2017, приключения, триллер, BDRip AVC] Galfimbul 23424809562.18 GB 0 0 1511377638

22:07

22-Ноя-17

Российские фильмы до 2016 ·· Время первых / Spacewalker (Дмитрий Киселёв) [2017, Россия, приключения, триллер, Blu-ray disc 1080p] [GER] Original Rus + Ger Dub Galfimbul 4684921050143.63 GB 2 0 1511375764

21:36

22-Ноя-17

Российские фильмы 2016-2017 (Новинки русского кино) ·· Время первых (Дмитрий Киселёв) [2017 г., приключения, триллер, WEB-DLRip] iTunes Galfimbul 23436001282.18 GB 2 0 1511345438

13:10

22-Ноя-17

Российские фильмы 2016-2017 (Новинки русского кино) ·· Время первых (Дмитрий Киселёв) [2017 г., приключения, триллер, BDRip] GER Transfer | Лицензия Galfimbul 23429877762.18 GB 0 0 1511293247

22:40

21-Ноя-17

Российские фильмы 2016-2017 (Новинки русского кино) ·· Время первых (Дмитрий Киселёв) [2017 г., приключения, триллер, BDRip] GER Transfer | Лицензия Galfimbul 15684608001.46 GB 69 19 1511293235

22:40

21-Ноя-17

Российские фильмы до 2016 ·· Время первых (Дмитрий Киселёв) [2017, Россия, приключения, триллер, HDTV 1080i] Original Rus Galfimbul 74956273046.98 GB 3 0 1508135657

09:34

16-Окт-17

Российские фильмы до 2016 ·· Время первых (Дмитрий Киселёв) [2017, Россия, приключения, триллер, WEB-DL 1080p] Original Rus Galfimbul 49763573564.63 GB 2 0 1505139104

17:11

11-Сен-17

Документальные фильмы и телепередачи ·· Время Первых. Антисоветская сказка. (Егор Иванов) [01.08.2017, документальный, HDRip] Galfimbul 14969466881.39 GB 0 0 1502808543

17:49

15-Авг-17

Документальные фильмы и телепередачи ·· ВРЕМЯ ПЕРВЫХ - антисоветская сказка (Егор Иванов) [01.08.2017, документальный, WEBRip] Galfimbul 41620309123.88 GB 0 0 1502486059

00:14

12-Авг-17

Российские фильмы до 2016 ·· Время первых (Дмитрий Киселёв) [2017, приключения, триллер, WEB-DLRip-AVC] Galfimbul 21980650742.05 GB 4 0 1495060242

01:30

18-Май-17

Российские фильмы до 2016 ·· Время первых (Дмитрий Киселёв) [2017, Россия, приключения, триллер, WEB-DLRip] Galfimbul 15709982721.46 GB 3 0 1494855816

16:43

15-Май-17

Российские фильмы 2016-2017 (Новинки русского кино) ·· Время первых (Дмитрий Киселёв) [2017, Россия, фантастика, WEB-DL 1080p] iTunes Galfimbul 49763573564.63 GB 6 0 1494852435

15:47

15-Май-17

Российские фильмы до 2016 ·· Время первых (Дмитрий Киселёв) [2017, Россия, фантастика, CamRip] + Original Rus Galfimbul 22045388802.05 GB 2 0 1492232676

08:04

15-Апр-17

Документальные фильмы и телепередачи ·· Воскресное время. Добавлен выпуск за 23.02.2015 (Первый Канал HD 1080p) [2015, итоговая информационно-аналитическая, HDTV 1080p] Galfimbul 88856444088.28 GB 0 0 1424903988

01:39

26-Фев-15

Документальные фильмы и телепередачи ·· Ким Чен Ын. Запрещенная биография / Kim Jong-il. The Forbidden Biography (Энтони Дюфур / Anthony Dufour) [2010, документальный, Новое время, DVB] DVO (Первый канал) Galfimbul 13430474901.25 GB 0 0 1424619360

18:36

22-Фев-15

Еще никто не оставлял запись к записи скачать торрент Время первых . Будь первым!

!Обратная связь