Скачать через торрент [iPad] Мадам Madame бесплатно русская версия torrent активатор

Если у вас наблюдаются проблемы со скриншотами, переходом по ссылками, скачиванием торрентов - проблемы в блокировщике рекламы AdBlock. #хорошегоДня!


Статистика раздачи
Размер:  1.48 GB   |    Зарегистрирован:  24 дня   |    .torrent скачан:  17 раз   |   
Раздают:  1  
   
Загрузка...
 
Автор Сообщение

Galfimbul

avatar Galfimbul


Мадам / Madame
«Счастье подано»

6.791 / 10 6.90 / 10
Год выпуска: 2017
Страна: Франция
Жанр: Драма, комедия
Продолжительность: 01:29:05

Перевод: Дублированный (iTunes)
Оригинальная аудиодорожка: Нет
Cубтитры: Нет
Режиссёр: Аманда Штерс
Сценарий: Аманда Штерс
Продюсер: Сирил Кольбо-Жюстен, Мэттью Гледхилл, Дидье Люпфер
Оператор: Режис Блондо
Композитор: Маттье Гонет
Художник: Херальд Наджар, Жулиан Жиро
Монтаж: Николя Шодер
В ролях: Тони Коллетт, Харви Кейтель, Росси де Пальма, Майкл Смайли, Кристиан Абарт, Сью Канн, Жозефин де ла Буме, Тим Феллингэм, Виолэйн Джилиберт, Том Хьюз

Сборы в России: $216 584

Мировая премьера: 12 июня 2017
Премьера (РФ): 14 сентября 2017, «Capella Film»

Описание: Богатая пара в Париже собирает гостей на званый ужин. Ждут мэра Лондона и других аристократов, но за столом 13 приборов. И хозяйка, из суеверия, просит служанку присоединиться к трапезе. Мария оказывается за столом инкогнито, и в нее влюбляется богатый коллекционер искусства.Качество исходника: WEB-DL 1080p
Качество: WEB-DLRip
Тип: SD (576p)
Контейнер: M4V
Видео: H.264, 1024x432, 2.40:1, 2 200 Kbps, 23.976 fps

Аудио: Русский/Дублированный (iTunes), AAC / 2.0 / 128 Kbps / 48.0 KHz
Sort Name: Мадам
XID: Apple:vendor_id:2017-1003738
contentID: 1292355540
Copyright: © 2017 Capella Film
Screenwriters: Аманда Штерс
Producers: Сирил Кольбо-Жюстен, Мэттью Гледхилл, Дидье Люпфер
Director: Аманда Штерс
Cast: Тони Коллетт, Харви Кейтель, Росси де Пальма, Майкл Смайли, Кристиан Абарт, Сью Канн, Жозефин де ла Буме, Тим Феллингэм, Виолэйн Джилиберт, Том Хьюз
Studio: LGM Productions, Made in PM
Rating: 135
Long Description: Богатая пара в Париже собирает гостей на званый ужин. Ждут мэра Лондона и других аристократов, но за столом 13 приборов. И хозяйка, из суеверия, просит служанку присоединиться к трапезе. Мария оказывается за столом инкогнито, и в нее влюбляется богатый коллекционер искусства.
Description: Богатая пара в Париже собирает гостей на званый ужин. Ждут мэра Лондона и других аристократов, но за столом 13 приборов. И хозяйка, из суеверия, просит служанку присоединиться к трапезе.
Release Date: 2017-09-14T07:00:00Z
Genre: Комедии
Artist: Аманда Штерс
Name: Мадам
General
Complete name : /Users/imac/HandBrake/Madame.(SD).(pk).m4v
Format : MPEG-4
Codec ID : M4V
File size : 1.48 GiB
Duration : 1h 31mn
Overall bit rate mode : Variable
Overall bit rate : 2 328 Kbps
Movie name : Мадам
Performer : Аманда Штерс
Director : Аманда Штерс
Actor : Тони Коллетт / Харви Кейтель / Росси де Пальма / Майкл Смайли / Кристиан Абарт / Сью Канн / Жозефин де ла Буме / Тим Феллингэм / Виолэйн Джилиберт / Том Хьюз
Screenplay by : Аманда Штерс
Producer : Сирил Кольбо-Жюстен / Мэттью Гледхилл / Дидье Люпфер
Production studio : LGM Productions, Made in PM
Genre : Комедии
ContentType : Short Film
Description : Богатая пара в Париже собирает гостей на званый ужин. Ждут мэра Лондона и других аристократов, но за столом 13 приборов. И хозяйка, из суеверия, просит служанку присоединиться к трапезе.
Recorded date : UTC 2017-09-14 07:00:00
Encoded date : UTC 2017-11-23 20:30:40
Tagged date : UTC 2017-11-23 20:31:38
Copyright : © 2017 Capella Film
Cover : Yes
Rating : None
Title/Sort : Мадам
LongDescription : Богатая пара в Париже собирает гостей на званый ужин. Ждут мэра Лондона и других аристократов, но за столом 13 приборов. И хозяйка, из суеверия, просит служанку присоединиться к трапезе. Мария оказывается за столом инкогнито, и в нее влюбляется богатый коллекционер искусства.
AppleStoreCatalogID : 1292355540
Vendor : Apple:vendor_id:2017-1003738
ContentRating : ru-movie|16+|375|

Video #1
ID : 1
Format : AVC
Format/Info : Advanced Video Codec
Format profile : High@L3.1
Format settings, CABAC : Yes
Format settings, ReFrames : 9 frames
Codec ID : avc1
Codec ID/Info : Advanced Video Coding
Duration : 1h 31mn
Source duration : 1h 31mn
Bit rate : 2 200 Kbps
Width : 1 024 pixels
Height : 432 pixels
Display aspect ratio : 2.40:1
Frame rate mode : Variable
Frame rate : 23.976 fps
Minimum frame rate : 23.974 fps
Maximum frame rate : 23.981 fps
Color space : YUV
Chroma subsampling : 4:2:0
Bit depth : 8 bits
Scan type : Progressive
Bits/(Pixel*Frame) : 0.207
Stream size : 1.40 GiB (94%)
Source stream size : 1.40 GiB (94%)
Title : Main Program
Writing library : x264 core 148 r2708 86b7198
Encoding settings : cabac=1 / ref=9 / deblock=1:0:0 / analyse=0x3:0x113 / me=umh / subme=9 / psy=1 / psy_rd=1.00:0.00 / mixed_ref=1 / me_range=32 / chroma_me=1 / trellis=1 / 8x8dct=1 / cqm=0 / deadzone=21,11 / fast_pskip=1 / chroma_qp_offset=-2 / threads=13 / lookahead_threads=1 / sliced_threads=0 / nr=0 / decimate=1 / interlaced=0 / bluray_compat=0 / constrained_intra=0 / bframes=6 / b_pyramid=2 / b_adapt=2 / b_bias=0 / direct=1 / weightb=1 / open_gop=0 / weightp=2 / keyint=240 / keyint_min=24 / scenecut=40 / intra_refresh=0 / rc_lookahead=40 / rc=2pass / mbtree=1 / bitrate=2200 / ratetol=1.0 / qcomp=0.60 / qpmin=0 / qpmax=69 / qpstep=4 / cplxblur=20.0 / qblur=0.5 / ip_ratio=1.40 / aq=1:1.00
Language : French
Encoded date : UTC 2017-11-23 20:30:40
Tagged date : UTC 2017-11-23 20:30:44
Color range : Limited
Color primaries : BT.709
Transfer characteristics : BT.709
Matrix coefficients : BT.709

Video #2
ID : 4
Format : JPEG
Codec ID : jpeg
Duration : 1h 31mn
Bit rate mode : Variable
Bit rate : 891 bps
Width : 640 pixels
Height : 270 pixels
Display aspect ratio : 2.40:1
Frame rate mode : Variable
Frame rate : 0.003 fps
Minimum frame rate : 0.001 fps
Maximum frame rate : 0.004 fps
Color space : YUV
Chroma subsampling : 4:2:0
Bit depth : 8 bits
Compression mode : Lossy
Bits/(Pixel*Frame) : 1.719
Stream size : 508 KiB (0%)
Title : Chapter Images
Language : French
Encoded date : UTC 2017-11-23 20:30:49
Tagged date : UTC 2017-11-23 20:30:49

Audio
ID : 2
Format : AAC
Format/Info : Advanced Audio Codec
Format profile : LC
Codec ID : 40
Duration : 1h 31mn
Bit rate mode : Variable
Bit rate : 123 Kbps
Maximum bit rate : 198 Kbps
Channel(s) : 2 channels
Channel positions : Front: L R
Sampling rate : 48.0 KHz
Compression mode : Lossy
Stream size : 80.1 MiB (5%)
Title : Russian Stereo
Language : Russian
Encoded date : UTC 2017-11-23 20:30:40
Tagged date : UTC 2017-11-23 20:30:45

Menu #1
00:00:00.000 : Глава 1
00:06:59.250 : Глава 2
00:13:15.500 : Глава 3
00:18:28.875 : Глава 4
00:23:27.666 : Глава 5
00:30:21.957 : Глава 6
00:37:54.373 : Глава 7
00:43:02.414 : Глава 8
00:51:30.205 : Глава 9
00:57:22.538 : Глава 10
01:03:29.204 : Глава 11
01:07:38.954 : Глава 12
01:13:01.495 : Глава 13
01:18:44.078 : Глава 14

Menu #2
ID : 3
Codec ID : text
Duration : 1h 31mn
Language : French
Encoded date : UTC 2017-11-23 20:30:45
Tagged date : UTC 2017-11-23 20:30:45
00:00:00.000 : Глава 1
00:06:59.250 : Глава 2
00:13:15.500 : Глава 3
00:18:28.875 : Глава 4
00:23:27.666 : Глава 5
00:30:21.957 : Глава 6
00:37:54.373 : Глава 7
00:43:02.414 : Глава 8
00:51:30.205 : Глава 9
00:57:22.538 : Глава 10
01:03:29.204 : Глава 11
01:07:38.954 : Глава 12
01:13:01.495 : Глава 13
01:18:44.078 : Глава 14
Bit rate mode : VBR
x264 [info]: frame I:1007  Avg QP:10.50  size: 82530
x264 [info]: frame P:33107 Avg QP:13.10  size: 24795
x264 [info]: frame B:97066 Avg QP:15.89  size:  6179
x264 [info]: consecutive B-frames:  1.5%  2.8%  4.5% 75.3%  5.1%  9.5%  1.3%
x264 [info]: mb I  I16..4:  7.6% 68.7% 23.7%
x264 [info]: mb P  I16..4:  0.7%  6.0%  1.7%  P16..4: 29.6% 31.3% 22.7%  0.0%  0.0%    skip: 8.0%
x264 [info]: mb B  I16..4:  0.0%  0.6%  0.2%  B16..8: 31.2% 13.8%  4.4%  direct: 5.1%  skip:44.6%  L0:41.3% L1:42.6% BI:16.0%
x264 [info]: 8x8 transform intra:70.4% inter:59.3%
x264 [info]: coded y,uvDC,uvAC intra: 93.1% 92.3% 81.7% inter: 28.2% 22.8% 6.0%
x264 [info]: i16 v,h,dc,p: 36% 10%  5% 49%
x264 [info]: i8 v,h,dc,ddl,ddr,vr,hd,vl,hu: 15% 11%  7%  8% 11% 13% 11% 12% 13%
x264 [info]: i4 v,h,dc,ddl,ddr,vr,hd,vl,hu: 13%  9%  3%  9% 14% 15% 13% 12% 13%
x264 [info]: i8c dc,h,v,p: 45% 20% 21% 13%
x264 [info]: Weighted P-Frames: Y:1.5% UV:0.6%
x264 [info]: ref P L0: 52.5%  7.7% 16.8%  7.0%  5.2%  3.6%  3.2%  1.9%  1.9%  0.0%  0.0%
x264 [info]: ref B L0: 74.7% 11.5%  5.4%  3.0%  2.2%  1.7%  1.0%  0.4%
x264 [info]: ref B L1: 95.4%  4.6%
x264 [info]: kb/s:2198.70
Релиз подготовлен для просмотра на Apple TV, iPad, iPhone, iPod Touch.
Для просмотра данного релиза на компьютере с ОС Windows рекомендуется использовать VLC media player

Трекер:  [ 23-Ноя-2017 23:42 ]

  

Скачать .torrent

Размер .torrent файла 30 KB


Размер: 1.48 GB
Хэш (hash) релиза: 4434a17615be7a8ca5ba9c1f5ffd06df1b9cb633

Еще никто не оставлял запись к записи скачать торрент [iPad] Мадам Madame . Будь первым!

!Обратная связь