Скачать через торрент Ужин The Dinner Фильм бесплатно в хорошем качестве torrent

Скачивайте на UnionPeer.org фильмы через торрент без регистрации. Новинки кино в хорошем качестве через торрент. На UnionPeer.org можно скачать через торрент фильмы 2014 и 2015 годов. Самые новые фильмы.

Скачать торрент Ужин The Dinner бесплатно через .torrent фильм мультфильм сериал

Если у вас наблюдаются проблемы со скриншотами, переходом по ссылками, скачиванием торрентов - проблемы в блокировщике рекламы AdBlock. #хорошегоДня!


Статистика раздачи
Размер:  26.61 GB   |    Зарегистрирован:  11 дней   |    .torrent скачан:  15 раз   |   
Раздают:  1  
   
Загрузка...
 
Автор Сообщение

Galfimbul

avatar Galfimbul


Ужин /The Dinner

Год выхода: 2017
Жанр: Триллер, детектив
Режиссер: Орен Муверман
В ролях: Ричард Гир, Лора Линни, Стив Кугэн, Ребекка Холл, Хлоя Севиньи, Чарли Пламмер, Эдеперо Одуйе, Майкл Чернус, Джоэль Биссоннет

О фильме:
Один вечер в ресторане. Две семьи за столом: будущий премьер-министр Стэн Ломан и его брат Пол с женами. Изысканный ужин превращается в поле битвы, а судьба их детей — в разменную монету. Как далеко способен зайти отец, чтобы защитить сына, совершившего преступление?



Страна: США
Студия: Blackbird
Продолжительность: 02:00:26
Перевод: Дублированный | iTunes

Файл
Качество: BDRemux 1080p
Видео: MPEG-4 AVC, 1920x1080, 27.0 Mbit/s, 23.976 fps
Звук:
Аудио #01: 48 kHz, AC3, 5.1, 384 Kbps | Дублированный | iTunes | RUS |
Аудио #02: 48 kHz, DTS-HD MA, 5.1, 4272 Kbps | Оригинал | ENG |
Субтитры: Английские

General
Unique ID : 170631710360691729154000868527565235846 (0x805E78D7E9A7C886AE032F78CFC8E686)
Complete name : G:VideoSSDThe.Dinner.2017.BDREMUX.1080p.ExKinoRay.mkv
Format : Matroska
Format version : Version 4 / Version 2
File size : 26.6 GiB
Duration : 2 h 0 min
Overall bit rate mode : Variable
Overall bit rate : 31.6 Mb/s
Movie name : The Dinner 2017 from ExKinoRay
Encoded date : UTC 2017-12-06 21:22:40
Writing application : mkvmerge v18.0.0 ('Apricity') 64-bit
Writing library : libebml v1.3.5 + libmatroska v1.4.8

Video
ID : 1
Format : AVC
Format/Info : Advanced Video Codec
Format profile : High@L4.1
Format settings : CABAC / 4 Ref Frames
Format settings, CABAC : Yes
Format settings, RefFrames : 4 frames
Codec ID : V_MPEG4/ISO/AVC
Duration : 2 h 0 min
Bit rate mode : Variable
Bit rate : 27.0 Mb/s
Maximum bit rate : 35.0 Mb/s
Width : 1 920 pixels
Height : 1 080 pixels
Display aspect ratio : 16:9
Frame rate mode : Constant
Frame rate : 23.976 (24000/1001) FPS
Standard : NTSC
Color space : YUV
Chroma subsampling : 4:2:0
Bit depth : 8 bits
Scan type : Progressive
Bits/(Pixel*Frame) : 0.542
Stream size : 22.7 GiB (85%)
Language : English
Default : Yes
Forced : No
Color range : Limited
Color primaries : BT.709
Transfer characteristics : BT.709
Matrix coefficients : BT.709

Audio #1
ID : 2
Format : AC-3
Format/Info : Audio Coding 3
Format settings, Endianness : Big
Codec ID : A_AC3
Duration : 2 h 0 min
Bit rate mode : Constant
Bit rate : 384 kb/s
Channel(s) : 6 channels
Channel positions : Front: L C R, Side: L R, LFE
Sampling rate : 48.0 kHz
Frame rate : 31.250 FPS (1536 SPF)
Bit depth : 16 bits
Compression mode : Lossy
Stream size : 331 MiB (1%)
Title : iTunes
Language : Russian
Service kind : Complete Main
Default : Yes
Forced : No

Audio #2
ID : 3
Format : DTS
Format/Info : Digital Theater Systems
Format profile : MA / Core
Mode : 16
Format settings, Endianness : Big
Codec ID : A_DTS
Duration : 2 h 0 min
Bit rate mode : Variable / Constant
Bit rate : 4 272 kb/s / 1 509 kb/s
Channel(s) : 6 channels
Channel positions : Front: L C R, Side: L R, LFE
Sampling rate : 48.0 kHz
Frame rate : 93.750 FPS (512 SPF)
Bit depth : 24 bits
Compression mode : Lossless / Lossy
Stream size : 3.59 GiB (14%)
Title : Original
Language : English
Default : No
Forced : No

Text
ID : 4
Format : UTF-8
Codec ID : S_TEXT/UTF8
Codec ID/Info : UTF-8 Plain Text
Duration : 1 h 59 min
Bit rate : 88 b/s
Count of elements : 2134
Stream size : 77.2 KiB (0%)
Title : Full
Language : English
Default : No
Forced : No

Menu
00:00:00.000 : en:00:00:00.000
00:10:47.814 : en:00:10:47.814
00:22:17.711 : en:00:22:17.711
00:30:58.607 : en:00:30:58.607
00:40:39.187 : en:00:40:39.187
00:50:19.225 : en:00:50:19.225
00:58:53.029 : en:00:58:53.029
01:10:22.218 : en:01:10:22.218
01:24:43.704 : en:01:24:43.704
01:37:09.073 : en:01:37:09.073
01:45:30.282 : en:01:45:30.282
01:54:20.854 : en:01:54:20.854
Источник http://arutor.org

Трекер:  [ 07-Дек-2017 00:40 ]

  

Скачать .torrent

Размер .torrent файла 133 KB


Размер: 26.61 GB
Хэш (hash) релиза: 50d50fa4b85522e186e69b91a43accc0f2e67fb4
Подписка на обновления:

Торренты, похожие на Ужин The Dinner скачать торрент

Форум Название Автор Размер S L Добавлен
Зарубежные фильмы 2016-2017 (Новинки зарубежного кино) ·· Ужин / The Dinner (Орен Муверман / Oren Moverman) [2017, США, триллер, драма, криминал, HDRip] Dub (iTunes) Galfimbul 15707074561.46 GB 3 0 1512757810

21:30

8-Дек-17

Зарубежные фильмы 2016-2017 (Новинки зарубежного кино) ·· Ужин / The Dinner (Орен Муверман) [2017 г., триллер, драма, криминал, BDRip] iTunes Galfimbul 15102873601.41 GB 3 0 1512598218

01:10

7-Дек-17

Зарубежные фильмы 2016-2017 (Новинки зарубежного кино) ·· Ужин / The Dinner (Орен Муверман) [2017 г., триллер, драма, криминал, BDRip 1080р] iTunes Galfimbul 1286540726411.98 GB 3 0 1512596433

00:40

7-Дек-17

Зарубежные фильмы 2016-2017 (Новинки зарубежного кино) ·· Ужин / The Dinner (Орен Муверман) [2017 г., триллер, драма, криминал, HDRip] DUB | Звук с TS Galfimbul 14677053441.37 GB 2 0 1510563918

12:05

13-Ноя-17

Документальные фильмы и телепередачи ·· Выход через сувенирную лавку + подарок: Ужин с Бэнкси / Exit Through the Gift Shop + Banksy's Coming For Dinner (Бэнкси / Banksy) [2010, Документальный, комедия, 2xDVD5] Galfimbul 66452336646.19 GB 0 0 1362905549

11:52

10-Мар-13

Еще никто не оставлял запись к записи скачать торрент Ужин The Dinner . Будь первым!

!Обратная связь