Скачать через торрент Радиус Radius Фильм бесплатно в хорошем качестве torrent

Скачивайте на UnionPeer.org фильмы через торрент без регистрации. Новинки кино в хорошем качестве через торрент. На UnionPeer.org можно скачать через торрент фильмы 2014 и 2015 годов. Самые новые фильмы.

Скачать торрент Радиус Radius бесплатно через .torrent фильм мультфильм сериал

Если у вас наблюдаются проблемы со скриншотами, переходом по ссылками, скачиванием торрентов - проблемы в блокировщике рекламы AdBlock. #хорошегоДня!


Статистика раздачи
Размер:  3.11 GB   |    Зарегистрирован:  11 дней   |    .torrent скачан:  239 раз   |   
Раздают:  3  
   
Загрузка...
 
Автор Сообщение

Galfimbul

avatar Galfimbul


Радиус /Radius

Год выхода: 2017
Жанр: фантастика, триллер
Режиссер: Кэролайн Лабреш, Steeve L?onard
В ролях: Диего Клаттенхофф, Шарлотта Салливан, Роберт Боргес, Андреа дель Кампо, Назарий Демкович, Бретт Донахью, Andrea Houssin, Алисия Джонстон, Trevor Kristjanson, Гарт Меркели

О фильме:
Очнувшись после автомобильной аварии, Лиам не может ничего вспомнить. Он пытается найти помощь, но на его пути встречаются лишь мертвые тела. Первая догадка — вирус, распространяющийся по воздуху.



Страна: Канада
Студии: EMA Films, Peripatetic Pictures, Title Media
Продолжительность: 01:33:09

Перевод: Любительский многоголосый [Студия "Paradox" & Omskbird records]
• Перевод: Оксана Графутко
• Роли озвучивали: Семен Ващенко, Алексей Гнеушев, Дмитрий Виноградов, Марина Гассан
• Звукорежиссер: Павел Квентов
Присутствует реклама!

Файл
Кодек: MKV (H.264)
Качество: WEB-DLRip 1080p
Видео: MPEG-4 AVC, 4332 kbps, 1912x800, 23.976 fps
Звук: 48 kHz, AC3 Dolby Digital, 2/0 (L,R) ch, ~448 kbps
Format : Matroska
Format version : Version 4 / Version 2
File size : 3.11 GiB
Duration : 1 h 33 min
Overall bit rate : 4 782 kb/s
Encoded date : UTC 2017-12-07 08:38:18
Writing application : mkvmerge v9.3.1 ('Mask Machine') 64bit
Writing library : libebml v1.3.4 + libmatroska v1.4.5

Video
ID : 1
Format : AVC
Format/Info : Advanced Video Codec
Format profile : Main@L4.1
Format settings, CABAC : Yes
Format settings, ReFrames : 4 frames
Format settings, GOP : M=4, N=23
Codec ID : V_MPEG4/ISO/AVC
Duration : 1 h 33 min
Bit rate : 4 332 kb/s
Width : 1 912 pixels
Height : 800 pixels
Display aspect ratio : 2.40:1
Frame rate mode : Constant
Frame rate : 23.976 (24000/1001) FPS
Standard : NTSC
Color space : YUV
Chroma subsampling : 4:2:0
Bit depth : 8 bits
Scan type : Progressive
Bits/(Pixel*Frame) : 0.118
Stream size : 2.82 GiB (91%)
Language : English
Default : Yes
Forced : No
Color range : Limited
Color primaries : BT.709
Transfer characteristics : BT.709
Matrix coefficients : BT.709

Audio
ID : 2
Format : AC-3
Format/Info : Audio Coding 3
Mode extension : CM (complete main)
Format settings, Endianness : Big
Codec ID : A_AC3
Duration : 1 h 33 min
Bit rate mode : Constant
Bit rate : 448 kb/s
Channel(s) : 2 channels
Channel positions : Front: L R
Sampling rate : 48.0 kHz
Frame rate : 31.250 FPS (1536 spf)
Compression mode : Lossy
Stream size : 299 MiB (9%)
Default : Yes
Forced : No
Источник http://arutor.org

Трекер:  [ 07-Дек-2017 13:00 ]

  

Скачать .torrent

Размер .torrent файла 16 KB


Размер: 3.11 GB
Хэш (hash) релиза: 541152a05ae064c7ef8cf673629a807ba377a837
Подписка на обновления:

Еще никто не оставлял запись к записи скачать торрент Радиус Radius . Будь первым!

!Обратная связь