Скачать через торрент Grand Theft Auto V - First Trailer Игра для ПК (PC) бесплатно torrent

Если у вас наблюдаются проблемы со скриншотами, переходом по ссылками, скачиванием торрентов - проблемы в блокировщике рекламы AdBlock. #хорошегоДня!


Статистика раздачи
Размер:  61 MB   |    Зарегистрирован:  6 лет 1 месяц   |    .torrent скачан:  356 раз   |   
Раздают:  1  
   
Загрузка...
 
Автор Сообщение

Schweppes



Дата выхода: 02.11.11
Жанр: Trailer
Разработчик: Rockstar Games
Издательство: Rockstar Games
Страна: США
Продолжительность: 00:01:24
Звук: Английский
Субтитры: Отсутствуют
Описание:
Действие игры происходят в San-Andreas.
Из трейлера мы понимаем, что играем за парня который только переехал в этот город, стандартное начало для всех Grand Theft Auto.
Нам все еще неизвестна дата выхода и платформы, на которых выйдет игра.


Качество: HD 720P
Формат: WMV
Видео кодек: WMV
Аудио кодек: WMA

Код:

Формат                           : Windows Media
Размер файла                     : 60,5 Мбайт
Продолжительность                : 1 м. 24 с.
Режим общего битрейта            : Переменный
Общий поток                      : 6026 Кбит/сек
Максимальный общий битрейт       : 6240 Кбит/сек
Дата кодирования                 : UTC 2011-11-01 04:30:56.314

Видео
Идентификатор                    : 2
Формат                           : VC-1
Профиль формата                  : AP@L3
Идентификатор кодека             : WVC1
Идентификатор кодека/Подсказка   : Microsoft
Описание кодека                  : Windows Media Video 9 Advanced Profile
Продолжительность                : 1 м. 24 с.
Вид битрейта                     : Переменный
Битрейт                          : 6000 Кбит/сек
Ширина                           : 1280 пикселей
Высота                           : 720 пикселей
Соотношение сторон               : 16:9
Частота кадров                   : 29,970 кадров/сек
Субдискретизация насыщенности    : 4:2:0
Битовая глубина                  : 8 бит
Тип развёртки                    : Прогрессивная
Метод сжатия                     : С потерями
Бит/(Пиксели*Кадры)              : 0.217
Размер потока                    : 60,3 Мбайт (100%)

Аудио
Идентификатор                    : 1
Формат                           : WMA
Профиль формата                  : Pro
Идентификатор кодека             : 162
Идентификатор кодека/Информация  : Windows Media Audio
Описание кодека                  : Windows Media Audio 10 Professional - 192 kbps, 48 kHz, 2 channel 16 bit 1-pass CBR
Продолжительность                : 1 м. 24 с.
Вид битрейта                     : Постоянный
Битрейт                          : 192 Кбит/сек
Каналы                           : 2 канала
Частота                          : 48,0 КГц
Битовая глубина                  : 16 бит
Размер потока                    : 1,93 Мбайт (3%)

Скриншоты
4x 1280x720




Трекер:  [ 02-Ноя-2011 20:55 ]

  

Скачать .torrent

Размер .torrent файла 629 B


Размер: 61 MB
Хэш (hash) релиза: 02bb51d1c93e0ee1426d240fd5a567f5c67dcfaa
Подписка на обновления:

Ferrat

Очень красиво выглядит. А чего они решили отойти от реализма и вернуться к вымышленному городу? Толеrантность не позволяет?)))

poykoboy

вообще-то сан-андрес это 3 города, Сан-Фиеро(Сан-Франциско), Лос Сантос(Лос Анджелес) и Вегас

kompotos

Да.... Не разочарован, ждемс.

SeadogX

Ferrat писал(а):

А чего они решили отойти от реализма и вернуться к вымышленному городу? Толеrантность не позволяет?)))
А что ты имеешь в виду под невымышленным? В ГТА4 Либерти-Сити, формально тоже вымышленный, но сделанный на основе Нью-Йорка. Также будет и здесь, название Лос-Сантос и все остальные названия заменены (чтобы не париться с лицензиями), но сделан на основе реального Лос-Анджелеса.

Хотите добавить комментарий к записи скачать торрент Grand Theft Auto V - First Trailer

!Обратная связь