Скачать через торрент музыку Alison Krauss And Union Station бесплатно без регистрации torrent

Если у вас наблюдаются проблемы со скриншотами, переходом по ссылками, скачиванием торрентов - проблемы в блокировщике рекламы AdBlock. #хорошегоДня!


Статистика раздачи
Размер:  3.84 GB   |    Зарегистрирован:  6 лет 1 месяц   |    .torrent скачан:  56 раз   |   
Раздают:  1  
   
Загрузка...
 
Автор Сообщение

Mos

avatar Mos


Alison Krauss And Union Station (AKUS) – CMT Most Wanted Live (Limited Edition)

Страна: USA
Жанр: bluegrass, country, folk
Продолжительность: 01:08:40
Год выпуска: 2005 г.
Лейбл: CMT Home Entertainment

Описание: CMT MOST WANTED LIVE features performances from some of today's top recording artists, who take requests from a studio audience and viewers at home via the web and phone lines. CMT MOST WANTED LIVE: ALISON KRAUSS AND UNION STATION - Multiple Grammy, CMA, and IBMA Award winners Alison Krauss and Union Station are a major force behind the resurgence of bluegrass music. They put on a jaw-dropping show, playing a mix of country and pop songs and rocking out on classic bluegrass. Go beyond the music as they answer questions from the audience. Driving rhythms, intricate melodies, note perfect harmonies and an angelic voice that plays in your head long after the show is over. These are the hallmarks of an Alison Krauss and Union Station live performance. Now you can have a front row seat with this limited-edition DVD. It's a rare evening of live song and story that will leave you wanting more. CMT, America's No. 1 Country Music Television network, offers original programming and music events that keep America pumped. You've got the inside-track on Country Music's entertainment freeway, with live concerts, in-depth artist interviews and exclusive World Premiers on new videos, and the best classic and cutting-edge country artists.

Треклист:
1.1 Let Me Tough You For Awhile
1.2 Bright Sunny South
2.1 Interview
Interviewer – Katie Cook
Interviewee – Alison Krauss, Barry Bales, Dan Tyminski, Jerry Douglas, Ron Block
2.2 The Lucky One
3.1 Choctaw Hayride
3.2 Interview
Interviewer – Katie Cook
Interviewee – Alison Krauss, Barry Bales, Jerry Douglas, Ron Block
4.1 Interview
Interviewer – Katie Cook
Interviewee – Alison Krauss, Barry Bales, Dan Tyminski, Jerry Douglas, Ron Block
4.2 There Is A Reason
5.1 Forget About It
5.2 Interview
Interviewer – Katie Cook
Interviewee – Alison Krauss, Barry Bales, Dan Tyminski, Jerry Douglas, Ron Block
5.3 When You Say Nothing At All
6.1 I Am A Man Of Constant Sorrow
6.2 Interview
Interviewer – Katie Cook
Interviewee – Alison Krauss, Dan Tyminski
7 Oh, Atlanta

Доп. информация:
Меню с треклистом издатели поленились сделать. Сам треклист достаточно хитренький. То есть в нескольких треках ещё присутствуют и коротенькие беседы с исполнителями прямо по ходу концерта. Данные интервью не отключаемые и привязаны к самим песням.
А в остальном как всегда - AKUS на высоте и зал им заслуженно аплодирует ... стоя.

Разбивка на главы по трекам: есть
Качество : DVD5
Формат: DVD video
Видео кодек: MPEG2
Аудио кодек: AC3
Видео: NTSC 4:3 (720x480) VBR 6790-6881 (9800) Kbps
Аудио: English (Dolby AC3, 2 ch) 192 Kbps
 
Title: AKUS CMTMWL DVDSize: 3.84 Gb ( 4 021 348,00 KBytes ) - DVD-5Enabled regions: 1, 2, 3, 4, 5, 6, 7, 8

VTS_01 : Play Length: 01:07:41+00:00:59 Video: NTSC 4:3 (720x480) VBR Audio: English (Dolby AC3, 2 ch)

* Menus Information *

VIDEO_TS MenuVideo: NTSC 4:3 (720x480) VBRAudio: Not specified (Dolby AC3, 2 ch)English Language Unit : Title Menu

VTS_01 MenuVideo: NTSC 4:3 (720x480) VBRAudio: Not specified (Dolby AC3, 2 ch)English Language Unit : Root Menu

GeneralComplete name : C:\Documents and Settings\chka\Downloads\AKUS CMTMWL DVD\VIDEO_TS\VIDEO_TS.BUPFormat : DVD VideoFormat profile : MenuFile size : 12.0 KiB

VideoID : 224 (0xE0)Format : MPEG VideoFormat version : Version 2Bit rate mode : VariableWidth : 720 pixelsHeight : 480 pixelsDisplay aspect ratio : 4:3Frame rate : 29.970 fpsStandard : NTSCCompression mode : Lossy

AudioFormat : AC-3Format/Info : Audio Coding 3Channel(s) : 2 channelsSampling rate : 48.0 KHzCompression mode : Lossy

TextFormat : RLEFormat/Info : Run-length encodingBit depth : 2 bits

GeneralComplete name : C:\Documents and Settings\chka\Downloads\AKUS CMTMWL DVD\VIDEO_TS\VIDEO_TS.IFOFormat : DVD VideoFormat profile : MenuFile size : 12.0 KiB

VideoID : 224 (0xE0)Format : MPEG VideoFormat version : Version 2Bit rate mode : VariableWidth : 720 pixelsHeight : 480 pixelsDisplay aspect ratio : 4:3Frame rate : 29.970 fpsStandard : NTSCCompression mode : Lossy

AudioFormat : AC-3Format/Info : Audio Coding 3Channel(s) : 2 channelsSampling rate : 48.0 KHzCompression mode : Lossy

TextFormat : RLEFormat/Info : Run-length encodingBit depth : 2 bits

GeneralComplete name : C:\Documents and Settings\chka\Downloads\AKUS CMTMWL DVD\VIDEO_TS\VIDEO_TS.VOBFormat : MPEG-PSFile size : 5.32 MiBDuration : 5s 890msOverall bit rate : 7 583 Kbps

VideoID : 224 (0xE0)Format : MPEG VideoFormat version : Version 2Format profile : Main@MainFormat settings, BVOP : YesFormat settings, Matrix : DefaultDuration : 5s 890msBit rate mode : ConstantBit rate : 7 240 KbpsWidth : 720 pixelsHeight : 480 pixelsDisplay aspect ratio : 4:3Frame rate : 29.970 fpsStandard : NTSCColor space : YUVChroma subsampling : 4:2:0Bit depth : 8 bitsCompression mode : LossyBits/(Pixel*Frame) : 0.699Stream size : 5.08 MiB (95%)

AudioID : 189 (0xBD)-128 (0x80)Format : AC-3Format/Info : Audio Coding 3Mode extension : CM (complete main)Muxing mode : DVD-VideoDuration : 5s 888msBit rate mode : ConstantBit rate : 192 KbpsChannel(s) : 2 channelsChannel positions : Front: L RSampling rate : 48.0 KHzBit depth : 16 bitsCompression mode : LossyDelay relative to video : -49msStream size : 138 KiB (3%)

Menu

GeneralComplete name : C:\Documents and Settings\chka\Downloads\AKUS CMTMWL DVD\VIDEO_TS\VTS_01_0.BUPFormat : DVD VideoFormat profile : ProgramFile size : 58.0 KiBDuration : 1h 7mnOverall bit rate : 116 bps

VideoID : 224 (0xE0)Format : MPEG VideoFormat version : Version 2Duration : 1h 7mnBit rate mode : VariableWidth : 720 pixelsHeight : 480 pixelsDisplay aspect ratio : 4:3Frame rate : 29.970 fpsStandard : NTSCCompression mode : Lossy

AudioID : 128 (0x80)Format : AC-3Format/Info : Audio Coding 3Duration : 1h 7mnChannel(s) : 2 channelsSampling rate : 48.0 KHzCompression mode : LossyLanguage : English

Menu #1Duration : 1h 7mn00:00:00.000 : Chapter 100:09:49.332 : Chapter 200:21:15.198 : Chapter 300:33:06.998 : Chapter 400:41:11.764 : Chapter 500:52:06.663 : Chapter 600:59:56.329 : Chapter 7List (Audio) : 0

Menu #2Duration : 59s 366ms00:00:00.000 : Chapter 1List (Audio) : 0

Menu #3

GeneralComplete name : C:\Documents and Settings\chka\Downloads\AKUS CMTMWL DVD\VIDEO_TS\VTS_01_0.IFOFormat : DVD VideoFormat profile : ProgramFile size : 58.0 KiBDuration : 1h 7mnOverall bit rate : 116 bps

VideoID : 224 (0xE0)Format : MPEG VideoFormat version : Version 2Duration : 1h 7mnBit rate mode : VariableWidth : 720 pixelsHeight : 480 pixelsDisplay aspect ratio : 4:3Frame rate : 29.970 fpsStandard : NTSCCompression mode : Lossy

AudioID : 128 (0x80)Format : AC-3Format/Info : Audio Coding 3Duration : 1h 7mnChannel(s) : 2 channelsSampling rate : 48.0 KHzCompression mode : LossyLanguage : English

Menu #1Duration : 1h 7mn00:00:00.000 : Chapter 100:09:49.332 : Chapter 200:21:15.198 : Chapter 300:33:06.998 : Chapter 400:41:11.764 : Chapter 500:52:06.663 : Chapter 600:59:56.329 : Chapter 7List (Audio) : 0

Menu #2Duration : 59s 366ms00:00:00.000 : Chapter 1List (Audio) : 0

Menu #3

GeneralComplete name : C:\Documents and Settings\chka\Downloads\AKUS CMTMWL DVD\VIDEO_TS\VTS_01_0.VOBFormat : MPEG-PSFile size : 111 MiBDuration : 1mn 0sOverall bit rate : 15.5 MbpsWriting library : Apple MPEG-2 Encoder v361-20040510 [6000000 1651 R6000000 w1 e2s E2 s0x0 V0x0]

VideoID : 224 (0xE0)Format : MPEG VideoFormat version : Version 2Format profile : Main@MainFormat settings, BVOP : YesFormat settings, Matrix : DefaultFormat settings, GOP : M=3, N=15Duration : 1mn 0sBit rate mode : VariableBit rate : 15.0 MbpsNominal bit rate : 6 000 KbpsWidth : 720 pixelsHeight : 480 pixelsDisplay aspect ratio : 4:3Frame rate : 29.970 fpsStandard : NTSCColor space : YUVChroma subsampling : 4:2:0Bit depth : 8 bitsScan type : InterlacedScan order : Bottom Field FirstCompression mode : LossyBits/(Pixel*Frame) : 1.446Stream size : 107 MiB (97%)Writing library : Apple MPEG-2 Encoder v361-20040510 [6000000 1651 R6000000 w1 e2s E2 s0x0 V0x0]

AudioID : 189 (0xBD)-128 (0x80)Format : AC-3Format/Info : Audio Coding 3Mode extension : CM (complete main)Muxing mode : DVD-VideoDuration : 1mn 0sBit rate mode : ConstantBit rate : 192 KbpsChannel(s) : 2 channelsChannel positions : Front: L RSampling rate : 48.0 KHzBit depth : 16 bitsCompression mode : LossyStream size : 1.37 MiB (1%)

Menu

GeneralComplete name : C:\Documents and Settings\chka\Downloads\AKUS CMTMWL DVD\VIDEO_TS\VTS_01_1.VOBFormat : MPEG-PSFile size : 1 024 MiBDuration : 8mn 20sOverall bit rate : 17.2 MbpsWriting library : Apple MPEG-2 Encoder v361-20040510 [5000000 1811 R5000000 w1 e2s E2 s0x0 V0x0]

VideoID : 224 (0xE0)Format : MPEG VideoFormat version : Version 2Format profile : Main@MainFormat settings, BVOP : YesFormat settings, Matrix : DefaultFormat settings, GOP : M=3, N=15Duration : 8mn 20sBit rate mode : VariableBit rate : 16.6 MbpsNominal bit rate : 5 000 KbpsWidth : 720 pixelsHeight : 480 pixelsDisplay aspect ratio : 4:3Frame rate : 29.970 fpsStandard : NTSCColor space : YUVChroma subsampling : 4:2:0Bit depth : 8 bitsScan type : InterlacedScan order : Bottom Field FirstCompression mode : LossyBits/(Pixel*Frame) : 1.605Stream size : 992 MiB (97%)Writing library : Apple MPEG-2 Encoder v361-20040510 [5000000 1811 R5000000 w1 e2s E2 s0x0 V0x0]

AudioID : 189 (0xBD)-128 (0x80)Format : AC-3Format/Info : Audio Coding 3Mode extension : CM (complete main)Muxing mode : DVD-VideoDuration : 8mn 20sBit rate mode : ConstantBit rate : 192 KbpsChannel(s) : 2 channelsChannel positions : Front: L RSampling rate : 48.0 KHzBit depth : 16 bitsCompression mode : LossyStream size : 11.5 MiB (1%)

Menu

GeneralComplete name : C:\Documents and Settings\chka\Downloads\AKUS CMTMWL DVD\VIDEO_TS\VTS_01_2.VOBFormat : MPEG-PSFile size : 1 024 MiBDuration : 19mn 50sOverall bit rate : 7 217 Kbps

VideoID : 224 (0xE0)Format : MPEG VideoFormat version : Version 2Format profile : Main@MainFormat settings, BVOP : YesFormat settings, Matrix : DefaultFormat settings, GOP : M=3, N=15Duration : 19mn 50sBit rate mode : VariableBit rate : 6 881 KbpsNominal bit rate : 9 800 KbpsWidth : 720 pixelsHeight : 480 pixelsDisplay aspect ratio : 4:3Frame rate : 29.970 fpsStandard : NTSCColor space : YUVChroma subsampling : 4:2:0Bit depth : 8 bitsScan type : InterlacedScan order : Top Field FirstCompression mode : LossyBits/(Pixel*Frame) : 0.664Stream size : 976 MiB (95%)

AudioID : 189 (0xBD)-128 (0x80)Format : AC-3Format/Info : Audio Coding 3Mode extension : CM (complete main)Muxing mode : DVD-VideoDuration : 19mn 50sBit rate mode : ConstantBit rate : 192 KbpsChannel(s) : 2 channelsChannel positions : Front: L RSampling rate : 48.0 KHzBit depth : 16 bitsCompression mode : LossyDelay relative to video : -554msStream size : 27.2 MiB (3%)

Menu

GeneralComplete name : C:\Documents and Settings\chka\Downloads\AKUS CMTMWL DVD\VIDEO_TS\VTS_01_3.VOBFormat : MPEG-PSFile size : 1 024 MiBDuration : 20mn 5sOverall bit rate : 7 124 Kbps

VideoID : 224 (0xE0)Format : MPEG VideoFormat version : Version 2Format profile : Main@MainFormat settings, BVOP : YesFormat settings, Matrix : DefaultFormat settings, GOP : M=3, N=15Duration : 20mn 5sBit rate mode : VariableBit rate : 6 790 KbpsNominal bit rate : 9 800 KbpsWidth : 720 pixelsHeight : 480 pixelsDisplay aspect ratio : 4:3Frame rate : 29.970 fpsStandard : NTSCColor space : YUVChroma subsampling : 4:2:0Bit depth : 8 bitsScan type : InterlacedScan order : Top Field FirstCompression mode : LossyBits/(Pixel*Frame) : 0.656Stream size : 976 MiB (95%)

AudioID : 189 (0xBD)-128 (0x80)Format : AC-3Format/Info : Audio Coding 3Mode extension : CM (complete main)Muxing mode : DVD-VideoDuration : 20mn 5sBit rate mode : ConstantBit rate : 192 KbpsChannel(s) : 2 channelsChannel positions : Front: L RSampling rate : 48.0 KHzBit depth : 16 bitsCompression mode : LossyDelay relative to video : -330msStream size : 27.6 MiB (3%)

Menu

GeneralComplete name : C:\Documents and Settings\chka\Downloads\AKUS CMTMWL DVD\VIDEO_TS\VTS_01_4.VOBFormat : MPEG-PSFile size : 739 MiBDuration : 2s 966msOverall bit rate : 2 090 Mbps

VideoID : 224 (0xE0)Format : MPEG VideoFormat version : Version 2Format profile : Main@MainFormat settings, BVOP : YesFormat settings, Matrix : DefaultFormat settings, GOP : M=3, N=15Duration : 2s 966msBit rate mode : VariableBit rate : 9 800 KbpsWidth : 720 pixelsHeight : 480 pixelsDisplay aspect ratio : 4:3Frame rate : 29.970 fpsStandard : NTSCColor space : YUVChroma subsampling : 4:2:0Bit depth : 8 bitsScan type : InterlacedScan order : Top Field FirstCompression mode : LossyBits/(Pixel*Frame) : 0.946Stream size : 3.47 MiB (0%)

AudioID : 189 (0xBD)-128 (0x80)Format : AC-3Format/Info : Audio Coding 3Mode extension : CM (complete main)Muxing mode : DVD-VideoDuration : 2s 966msBit rate mode : ConstantBit rate : 192 KbpsChannel(s) : 2 channelsChannel positions : Front: L RSampling rate : 48.0 KHzBit depth : 16 bitsCompression mode : LossyDelay relative to video : -660msStream size : 69.5 KiB (0%)


Трекер:  [ 12-Ноя-2011 05:47 ]

  

Скачать .torrent

Размер .torrent файла 20 KB


Размер: 3.84 GB
Хэш (hash) релиза: 71729d4dc5571e72edf25ae531680d5e206d849f

bot

Топик был перенесен в форум Фольклор, Народная и Этническая музыка (video)

Перенес Mos

Хотите добавить комментарий к записи скачать торрент Alison Krauss And Union Station

!Обратная связь