Скачать через торрент музыку Артур и минипуты Arthur and The Minimoys бесплатно без регистрации torrent

Если у вас наблюдаются проблемы со скриншотами, переходом по ссылками, скачиванием торрентов - проблемы в блокировщике рекламы AdBlock. #хорошегоДня!


Статистика раздачи
Размер:  439 MB   |    Зарегистрирован:  6 лет   |    .torrent скачан:  38 раз   |   
Раздают:  1  
   
Загрузка...
 
Автор Сообщение

Galfimbul

avatar Galfimbul


Артур и минипуты | Arthur and The Minimoys
Жанр: Score
Композитор: Eric Serra
Год выпуска диска:2007
Год выпуска фильма: 2006
Страна-производитель диска: EU
Издатель (лейбл): Atlantic Records
Номер по каталогу: 7567-94679-2
Аудио кодек: FLAC (*.flac)
Тип рипа: tracks+.cue
Битрейт аудио: lossless
Продолжительность: 01:17:52
Источник: Собственный рип
Наличие сканов в содержимом раздачи: да
 
1. Quest For Love (03:20) performed by Jewel2. Go Girl (03:39) performed by Snoop Dogg3. It's A Beautiful Day (03:23) performed by Elijah4. The Minimoys Overture (02:19)5. Nice Town (01:25)6. Arthur And The Aqueduct (01:22)7. The Phonecall And The Waxcake (02:44)8. Davidoo And The Watertank (00:40)9. Small As A Tooth (01:22)10. Stolen Kiss (01:09)11. Grandpa's Mission (01:07)12. The Cloth Ladder (01:13)13. Bogo Matassalai (04:02)14. Try To Be Convincing (01:53)15. Third Ring For The Soul (01:29)16. The Land Of The Minimoys (03:26)17. Central Gate (01:18)18. The Blueberry Catapult (01:15)19. Lovebirds (01:18)20. Feeding Time (01:20)21. The Sword Of Power (01:52)22. Arthur The Hero (02:07)23. Patchimole (01:34)24. Cosmonut (02:18)25. Nutboat And Laces (01:07)26. Ballad For Granny (01:06)27. In Bed With Selenia (01:53)28. Red Poppy Night (00:58)29. Dragonfly Eggs (00:45)30. Evil Straws (01:02)31. Koolo (01:31)32. Malthazar (04:15)33. No Kiss But Tradition (01:04)34. Show Time In Necropolis (03:18)35. Timeballs (01:16)36. Solid Gate (00:55)37. Eternally Grateful (01:15)38. A Beauitful Day (01:30)39. Destruction Of The Seides (02:41)40. A Bowl Of Rubies (01:16)41. Greed And Loneliness (01:21)42. The Minimoys Finale (03:04)
 
Exact Audio Copy V1.0 beta 3 from 29. August 2011

EAC extraction logfile from 12. November 2011, 0:02

Various / Arthur And Minimoys

Used drive : Optiarc DVD RW AD-7283S Adapter: 1 ID: 1

Read mode : SecureUtilize accurate stream : YesDefeat audio cache : YesMake use of C2 pointers : No

Read offset correction : 48Overread into Lead-In and Lead-Out : YesFill up missing offset samples with silence : YesDelete leading and trailing silent blocks : NoNull samples used in CRC calculations : YesUsed interface : Installed external ASPI interfaceGap handling : Appended to previous track

Used output format : User Defined EncoderSelected bitrate : 1024 kBit/sQuality : HighAdd ID3 tag : NoCommand line compressor : C:\Program Files\Exact Audio Copy\Flac\flac.exeAdditional command line options : -V -8 -T "Genre=%genre%" -T "Artist=%artist%" -T "Title=%title%" -T "Album=%albumtitle%" -T "Date=%year%" -T "Tracknumber=%tracknr%" -T "Comment=%comment%" %source%

TOC of the extracted CD

Track | Start | Length | Start sector | End sector --------------------------------------------------------- 1 | 0:00.00 | 3:20.17 | 0 | 15016 2 | 3:20.17 | 3:39.09 | 15017 | 31450 3 | 6:59.26 | 3:23.18 | 31451 | 46693 4 | 10:22.44 | 2:19.42 | 46694 | 57160 5 | 12:42.11 | 1:25.06 | 57161 | 63541 6 | 14:07.17 | 1:22.40 | 63542 | 69731 7 | 15:29.57 | 2:44.68 | 69732 | 82099 8 | 18:14.50 | 0:40.10 | 82100 | 85109 9 | 18:54.60 | 1:22.69 | 85110 | 91328 10 | 20:17.54 | 1:09.27 | 91329 | 96530 11 | 21:27.06 | 1:07.15 | 96531 | 101570 12 | 22:34.21 | 1:13.31 | 101571 | 107076 13 | 23:47.52 | 4:02.49 | 107077 | 125275 14 | 27:50.26 | 1:53.45 | 125276 | 133795 15 | 29:43.71 | 1:29.50 | 133796 | 140520 16 | 31:13.46 | 3:26.14 | 140521 | 155984 17 | 34:39.60 | 1:18.43 | 155985 | 161877 18 | 35:58.28 | 1:15.57 | 161878 | 167559 19 | 37:14.10 | 1:18.00 | 167560 | 173409 20 | 38:32.10 | 1:20.22 | 173410 | 179431 21 | 39:52.32 | 1:52.55 | 179432 | 187886 22 | 41:45.12 | 2:07.74 | 187887 | 197485 23 | 43:53.11 | 1:34.57 | 197486 | 204592 24 | 45:27.68 | 2:18.50 | 204593 | 214992 25 | 47:46.43 | 1:07.45 | 214993 | 220062 26 | 48:54.13 | 1:06.38 | 220063 | 225050 27 | 50:00.51 | 1:53.30 | 225051 | 233555 28 | 51:54.06 | 0:58.62 | 233556 | 237967 29 | 52:52.68 | 0:45.11 | 237968 | 241353 30 | 53:38.04 | 1:02.43 | 241354 | 246046 31 | 54:40.47 | 1:31.68 | 246047 | 252939 32 | 56:12.40 | 4:15.60 | 252940 | 272124 33 | 60:28.25 | 1:04.51 | 272125 | 276975 34 | 61:33.01 | 3:18.37 | 276976 | 291862 35 | 64:51.38 | 1:16.51 | 291863 | 297613 36 | 66:08.14 | 0:55.18 | 297614 | 301756 37 | 67:03.32 | 1:15.16 | 301757 | 307397 38 | 68:18.48 | 1:30.26 | 307398 | 314173 39 | 69:48.74 | 2:41.05 | 314174 | 326253 40 | 72:30.04 | 1:16.26 | 326254 | 331979 41 | 73:46.30 | 1:21.05 | 331980 | 338059 42 | 75:07.35 | 3:04.51 | 338060 | 351910

Track 1

Filename F:\torrent\Arthur And Minimoys_OST\score\01 Quest For Love.wav

Pre-gap length 0:00:02.00

Peak level 88.1 % Extraction speed 2.5 X Track quality 100.0 % Test CRC F05AC8C4 Copy CRC F05AC8C4 Track not present in AccurateRip database Copy OK

Track 2

Filename F:\torrent\Arthur And Minimoys_OST\score\02 Go Girl.wav

Pre-gap length 0:00:01.62

Peak level 99.8 % Extraction speed 2.4 X Track quality 99.9 % Test CRC 7D696750 Copy CRC 7D696750 Track not present in AccurateRip database Copy OK

Track 3

Filename F:\torrent\Arthur And Minimoys_OST\score\03 It's A Beautiful Day.wav

Pre-gap length 0:00:01.64

Peak level 94.4 % Extraction speed 2.9 X Track quality 100.0 % Test CRC CCE7BC60 Copy CRC CCE7BC60 Track not present in AccurateRip database Copy OK

Track 4

Filename F:\torrent\Arthur And Minimoys_OST\score\04 The Minimoys Overture.wav

Pre-gap length 0:00:01.60

Peak level 91.7 % Extraction speed 2.9 X Track quality 100.0 % Test CRC 6AB2A1AB Copy CRC 6AB2A1AB Track not present in AccurateRip database Copy OK

Track 5

Filename F:\torrent\Arthur And Minimoys_OST\score\05 Nice Town.wav

Peak level 99.7 % Extraction speed 2.6 X Track quality 100.0 % Test CRC 1061B889 Copy CRC 1061B889 Track not present in AccurateRip database Copy OK

Track 6

Filename F:\torrent\Arthur And Minimoys_OST\score\06 Arthur And The Aqueduct.wav

Peak level 99.7 % Extraction speed 2.6 X Track quality 100.0 % Test CRC 680BB86B Copy CRC 680BB86B Track not present in AccurateRip database Copy OK

Track 7

Filename F:\torrent\Arthur And Minimoys_OST\score\07 The Phonecall And The Waxcake.wav

Peak level 75.0 % Extraction speed 3.2 X Track quality 100.0 % Test CRC A7A73569 Copy CRC A7A73569 Track not present in AccurateRip database Copy OK

Track 8

Filename F:\torrent\Arthur And Minimoys_OST\score\08 Davidoo And The Watertank.wav

Peak level 83.1 % Extraction speed 2.1 X Track quality 100.0 % Test CRC C0191DBF Copy CRC C0191DBF Track not present in AccurateRip database Copy OK

Track 9

Filename F:\torrent\Arthur And Minimoys_OST\score\09 Small As A Tooth.wav

Peak level 40.6 % Extraction speed 2.8 X Track quality 100.0 % Test CRC 0BD77B48 Copy CRC 0BD77B48 Track not present in AccurateRip database Copy OK

Track 10

Filename F:\torrent\Arthur And Minimoys_OST\score\10 Stolen Kiss.wav

Peak level 99.7 % Extraction speed 2.0 X Track quality 99.8 % Test CRC F21839C9 Copy CRC F21839C9 Track not present in AccurateRip database Copy OK

Track 11

Filename F:\torrent\Arthur And Minimoys_OST\score\11 Grandpa's Mission.wav

Peak level 99.7 % Extraction speed 2.7 X Track quality 100.0 % Test CRC B3DE4E3A Copy CRC B3DE4E3A Track not present in AccurateRip database Copy OK

Track 12

Filename F:\torrent\Arthur And Minimoys_OST\score\12 The Cloth Ladder.wav

Peak level 99.7 % Extraction speed 2.8 X Track quality 100.0 % Test CRC 04ADBFD8 Copy CRC 04ADBFD8 Track not present in AccurateRip database Copy OK

Track 13

Filename F:\torrent\Arthur And Minimoys_OST\score\13 Bogo Matassalai.wav

Peak level 99.7 % Extraction speed 3.3 X Track quality 99.9 % Test CRC 8FC2306A Copy CRC 8FC2306A Track not present in AccurateRip database Copy OK

Track 14

Filename F:\torrent\Arthur And Minimoys_OST\score\14 Try To Be Convincing.wav

Peak level 86.8 % Extraction speed 3.4 X Track quality 100.0 % Test CRC 6741AE2E Copy CRC 6741AE2E Track not present in AccurateRip database Copy OK

Track 15

Filename F:\torrent\Arthur And Minimoys_OST\score\15 Third Ring For The Soul.wav

Peak level 99.7 % Extraction speed 3.2 X Track quality 100.0 % Test CRC 1B41899B Copy CRC 1B41899B Track not present in AccurateRip database Copy OK

Track 16

Filename F:\torrent\Arthur And Minimoys_OST\score\16 The Land Of The Minimoys.wav

Peak level 99.7 % Extraction speed 3.5 X Track quality 99.9 % Test CRC C127B6B2 Copy CRC C127B6B2 Track not present in AccurateRip database Copy OK

Track 17

Filename F:\torrent\Arthur And Minimoys_OST\score\17 Central Gate.wav

Peak level 99.7 % Extraction speed 3.3 X Track quality 100.0 % Test CRC A9A469ED Copy CRC A9A469ED Track not present in AccurateRip database Copy OK

Track 18

Filename F:\torrent\Arthur And Minimoys_OST\score\18 The Blueberry Catapult.wav

Peak level 99.7 % Extraction speed 3.2 X Track quality 100.0 % Test CRC 7AFF48E8 Copy CRC 7AFF48E8 Track not present in AccurateRip database Copy OK

Track 19

Filename F:\torrent\Arthur And Minimoys_OST\score\19 Lovebirds.wav

Peak level 99.7 % Extraction speed 2.5 X Track quality 99.8 % Test CRC 781B0F2C Copy CRC 781B0F2C Track not present in AccurateRip database Copy OK

Track 20

Filename F:\torrent\Arthur And Minimoys_OST\score\20 Feeding Time.wav

Peak level 99.7 % Extraction speed 2.6 X Track quality 99.8 % Test CRC 13701147 Copy CRC 13701147 Track not present in AccurateRip database Copy OK

Track 21

Filename F:\torrent\Arthur And Minimoys_OST\score\21 The Sword Of Power.wav

Peak level 99.7 % Extraction speed 3.8 X Track quality 100.0 % Test CRC 48FCEA47 Copy CRC 48FCEA47 Track not present in AccurateRip database Copy OK

Track 22

Filename F:\torrent\Arthur And Minimoys_OST\score\22 Arthur The Hero.wav

Peak level 99.7 % Extraction speed 3.9 X Track quality 100.0 % Test CRC 7569ECAF Copy CRC 7569ECAF Track not present in AccurateRip database Copy OK

Track 23

Filename F:\torrent\Arthur And Minimoys_OST\score\23 Patchimole.wav

Peak level 99.7 % Extraction speed 3.7 X Track quality 100.0 % Test CRC 0323E9EA Copy CRC 0323E9EA Track not present in AccurateRip database Copy OK

Track 24

Filename F:\torrent\Arthur And Minimoys_OST\score\24 Cosmonut.wav

Peak level 99.7 % Extraction speed 4.2 X Track quality 100.0 % Test CRC BB9EE3D2 Copy CRC BB9EE3D2 Track not present in AccurateRip database Copy OK

Track 25

Filename F:\torrent\Arthur And Minimoys_OST\score\25 Nutboat And Laces.wav

Peak level 99.7 % Extraction speed 3.4 X Track quality 100.0 % Test CRC 22353A38 Copy CRC 22353A38 Track not present in AccurateRip database Copy OK

Track 26

Filename F:\torrent\Arthur And Minimoys_OST\score\26 Ballad For Granny.wav

Peak level 27.7 % Extraction speed 3.5 X Track quality 100.0 % Test CRC 35F966A3 Copy CRC 35F966A3 Track not present in AccurateRip database Copy OK

Track 27

Filename F:\torrent\Arthur And Minimoys_OST\score\27 In Bed With Selenia.wav

Peak level 60.1 % Extraction speed 4.1 X Track quality 100.0 % Test CRC 4275EA8D Copy CRC 4275EA8D Track not present in AccurateRip database Copy OK

Track 28

Filename F:\torrent\Arthur And Minimoys_OST\score\28 Red Poppy Night.wav

Peak level 42.9 % Extraction speed 3.4 X Track quality 100.0 % Test CRC 2F0E0BFC Copy CRC 2F0E0BFC Track not present in AccurateRip database Copy OK

Track 29

Filename F:\torrent\Arthur And Minimoys_OST\score\29 Dragonfly Eggs.wav

Peak level 70.6 % Extraction speed 2.1 X Track quality 99.7 % Test CRC AAE0A3E4 Copy CRC AAE0A3E4 Track not present in AccurateRip database Copy OK

Track 30

Filename F:\torrent\Arthur And Minimoys_OST\score\30 Evil Straws.wav

Peak level 99.7 % Extraction speed 3.5 X Track quality 100.0 % Test CRC F90A2239 Copy CRC F90A2239 Track not present in AccurateRip database Copy OK

Track 31

Filename F:\torrent\Arthur And Minimoys_OST\score\31 Koolo.wav

Peak level 99.7 % Extraction speed 4.0 X Track quality 100.0 % Test CRC B2D4A8CE Copy CRC B2D4A8CE Track not present in AccurateRip database Copy OK

Track 32

Filename F:\torrent\Arthur And Minimoys_OST\score\32 Malthazar.wav

Peak level 99.9 % Extraction speed 5.0 X Track quality 100.0 % Test CRC D9A81C95 Copy CRC D9A81C95 Track not present in AccurateRip database Copy OK

Track 33

Filename F:\torrent\Arthur And Minimoys_OST\score\33 No Kiss But Tradition.wav

Peak level 99.7 % Extraction speed 3.7 X Track quality 100.0 % Test CRC 664B244F Copy CRC 664B244F Track not present in AccurateRip database Copy OK

Track 34

Filename F:\torrent\Arthur And Minimoys_OST\score\34 Show Time In Necropolis.wav

Peak level 99.7 % Extraction speed 5.0 X Track quality 100.0 % Test CRC 849509DC Copy CRC 849509DC Track not present in AccurateRip database Copy OK

Track 35

Filename F:\torrent\Arthur And Minimoys_OST\score\35 Timeballs.wav

Peak level 99.7 % Extraction speed 3.1 X Track quality 99.8 % Test CRC 596E27EB Copy CRC 596E27EB Track not present in AccurateRip database Copy OK

Track 36

Filename F:\torrent\Arthur And Minimoys_OST\score\36 Solid Gate.wav

Peak level 99.7 % Extraction speed 3.6 X Track quality 100.0 % Test CRC 3ED195F2 Copy CRC 3ED195F2 Track not present in AccurateRip database Copy OK

Track 37

Filename F:\torrent\Arthur And Minimoys_OST\score\37 Eternally Grateful.wav

Peak level 99.7 % Extraction speed 4.0 X Track quality 100.0 % Test CRC 5EB7131E Copy CRC 5EB7131E Track not present in AccurateRip database Copy OK

Track 38

Filename F:\torrent\Arthur And Minimoys_OST\score\38 A Beautiful Sunday.wav

Peak level 99.7 % Extraction speed 4.3 X Track quality 100.0 % Test CRC FC5EB179 Copy CRC FC5EB179 Track not present in AccurateRip database Copy OK

Track 39

Filename F:\torrent\Arthur And Minimoys_OST\score\39 Destruction Of The Seides.wav

Peak level 99.7 % Extraction speed 5.0 X Track quality 100.0 % Test CRC 6F7EE32A Copy CRC 6F7EE32A Track not present in AccurateRip database Copy OK

Track 40

Filename F:\torrent\Arthur And Minimoys_OST\score\40 A Bowl Of Rubies.wav

Peak level 97.7 % Extraction speed 3.2 X Track quality 99.8 % Test CRC 3BA0E6EB Copy CRC 3BA0E6EB Track not present in AccurateRip database Copy OK

Track 41

Filename F:\torrent\Arthur And Minimoys_OST\score\41 Greed And Loneliness.wav

Peak level 99.7 % Extraction speed 4.3 X Track quality 100.0 % Test CRC 8349C133 Copy CRC 8349C133 Track not present in AccurateRip database Copy OK

Track 42

Filename F:\torrent\Arthur And Minimoys_OST\score\42 The Minimoys Finale.wav

Peak level 99.7 % Extraction speed 6.2 X Track quality 100.0 % Test CRC 7186FAA6 Copy CRC 7186FAA6 Track not present in AccurateRip database Copy OK

None of the tracks are present in the AccurateRip database

No errors occurred

End of status report

==== Log checksum 82DC2DB0E6719BB74E8334206B6C0BB42A03786175AE479007FFCAAEE0F85886 ====
 
REM GENRE SoundtrackREM DATE 2006REM DISCID 6112542AREM COMMENT "ExactAudioCopy v1.0b3"CATALOG 0075679467928PERFORMER "Various"TITLE "Arthur And Minimoys"FILE "01 Quest For Love.wav" WAVE TRACK 01 AUDIO TITLE "Quest For Love" PERFORMER "Jewel" ISRC USAT20623992 INDEX 01 00:00:00 TRACK 02 AUDIO TITLE "Go Girl" PERFORMER "Snoop Dogg" ISRC USUM70620644 INDEX 00 03:18:30FILE "02 Go Girl.wav" WAVE INDEX 01 00:00:00 TRACK 03 AUDIO TITLE "It's A Beautiful Day" PERFORMER "Elijah" ISRC FR86U0600130 INDEX 00 03:37:20FILE "03 It's A Beautiful Day.wav" WAVE INDEX 01 00:00:00 TRACK 04 AUDIO TITLE "The Minimoys Overture" PERFORMER "Eric Serra" ISRC FR86U0600089 INDEX 00 03:21:33FILE "04 The Minimoys Overture.wav" WAVE INDEX 01 00:00:00FILE "05 Nice Town.wav" WAVE TRACK 05 AUDIO TITLE "Nice Town" PERFORMER "Eric Serra" ISRC FR86U0600090 INDEX 01 00:00:00FILE "06 Arthur And The Aqueduct.wav" WAVE TRACK 06 AUDIO TITLE "Arthur And The Aqueduct" PERFORMER "Eric Serra" ISRC FR86U0600091 INDEX 01 00:00:00FILE "07 The Phonecall And The Waxcake.wav" WAVE TRACK 07 AUDIO TITLE "The Phonecall And The Waxcake" PERFORMER "Eric Serra" ISRC FR86U0600092 INDEX 01 00:00:00FILE "08 Davidoo And The Watertank.wav" WAVE TRACK 08 AUDIO TITLE "Davidoo And The Watertank" PERFORMER "Eric Serra" ISRC FR86U0600093 INDEX 01 00:00:00FILE "09 Small As A Tooth.wav" WAVE TRACK 09 AUDIO TITLE "Small As A Tooth" PERFORMER "Eric Serra" ISRC FR86U0600094 INDEX 01 00:00:00FILE "10 Stolen Kiss.wav" WAVE TRACK 10 AUDIO TITLE "Stolen Kiss" PERFORMER "Eric Serra" ISRC FR86U0600095 INDEX 01 00:00:00FILE "11 Grandpa's Mission.wav" WAVE TRACK 11 AUDIO TITLE "Grandpa's Mission" PERFORMER "Eric Serra" ISRC FR86U0600096 INDEX 01 00:00:00FILE "12 The Cloth Ladder.wav" WAVE TRACK 12 AUDIO TITLE "The Cloth Ladder" PERFORMER "Eric Serra" ISRC FR86U0600097 INDEX 01 00:00:00FILE "13 Bogo Matassalai.wav" WAVE TRACK 13 AUDIO TITLE "Bogo Matassalai" PERFORMER "Eric Serra" ISRC FR86U0600098 INDEX 01 00:00:00FILE "14 Try To Be Convincing.wav" WAVE TRACK 14 AUDIO TITLE "Try To Be Convincing" PERFORMER "Eric Serra" ISRC FR86U0600099 INDEX 01 00:00:00FILE "15 Third Ring For The Soul.wav" WAVE TRACK 15 AUDIO TITLE "Third Ring For The Soul" PERFORMER "Eric Serra" ISRC FR86U0600100 INDEX 01 00:00:00FILE "16 The Land Of The Minimoys.wav" WAVE TRACK 16 AUDIO TITLE "The Land Of The Minimoys" PERFORMER "Eric Serra" ISRC FR86U0600101 INDEX 01 00:00:00FILE "17 Central Gate.wav" WAVE TRACK 17 AUDIO TITLE "Central Gate" PERFORMER "Eric Serra" ISRC FR86U0600102 INDEX 01 00:00:00FILE "18 The Blueberry Catapult.wav" WAVE TRACK 18 AUDIO TITLE "The Blueberry Catapult" PERFORMER "Eric Serra" ISRC FR86U0600103 INDEX 01 00:00:00FILE "19 Lovebirds.wav" WAVE TRACK 19 AUDIO TITLE "Lovebirds" PERFORMER "Eric Serra" ISRC FR86U0600104 INDEX 01 00:00:00FILE "20 Feeding Time.wav" WAVE TRACK 20 AUDIO TITLE "Feeding Time" PERFORMER "Eric Serra" ISRC FR86U0600105 INDEX 01 00:00:00FILE "21 The Sword Of Power.wav" WAVE TRACK 21 AUDIO TITLE "The Sword Of Power" PERFORMER "Eric Serra" ISRC FR86U0600106 INDEX 01 00:00:00FILE "22 Arthur The Hero.wav" WAVE TRACK 22 AUDIO TITLE "Arthur The Hero" PERFORMER "Eric Serra" ISRC FR86U0600107 INDEX 01 00:00:00FILE "23 Patchimole.wav" WAVE TRACK 23 AUDIO TITLE "Patchimole" PERFORMER "Eric Serra" ISRC FR86U0600108 INDEX 01 00:00:00FILE "24 Cosmonut.wav" WAVE TRACK 24 AUDIO TITLE "Cosmonut" PERFORMER "Eric Serra" ISRC FR86U0600109 INDEX 01 00:00:00FILE "25 Nutboat And Laces.wav" WAVE TRACK 25 AUDIO TITLE "Nutboat And Laces" PERFORMER "Eric Serra" ISRC FR86U0600110 INDEX 01 00:00:00FILE "26 Ballad For Granny.wav" WAVE TRACK 26 AUDIO TITLE "Ballad For Granny" PERFORMER "Eric Serra" ISRC FR86U0600111 INDEX 01 00:00:00FILE "27 In Bed With Selenia.wav" WAVE TRACK 27 AUDIO TITLE "In Bed With Selenia" PERFORMER "Eric Serra" ISRC FR86U0600112 INDEX 01 00:00:00FILE "28 Red Poppy Night.wav" WAVE TRACK 28 AUDIO TITLE "Red Poppy Night" PERFORMER "Eric Serra" ISRC FR86U0600113 INDEX 01 00:00:00FILE "29 Dragonfly Eggs.wav" WAVE TRACK 29 AUDIO TITLE "Dragonfly Eggs" PERFORMER "Eric Serra" ISRC FR86U0600114 INDEX 01 00:00:00FILE "30 Evil Straws.wav" WAVE TRACK 30 AUDIO TITLE "Evil Straws" PERFORMER "Eric Serra" ISRC FR86U0600115 INDEX 01 00:00:00FILE "31 Koolo.wav" WAVE TRACK 31 AUDIO TITLE "Koolo" PERFORMER "Eric Serra" ISRC FR86U0600116 INDEX 01 00:00:00FILE "32 Malthazar.wav" WAVE TRACK 32 AUDIO TITLE "Malthazar" PERFORMER "Eric Serra" ISRC FR86U0600117 INDEX 01 00:00:00FILE "33 No Kiss But Tradition.wav" WAVE TRACK 33 AUDIO TITLE "No Kiss But Tradition" PERFORMER "Eric Serra" ISRC FR86U0600118 INDEX 01 00:00:00FILE "34 Show Time In Necropolis.wav" WAVE TRACK 34 AUDIO TITLE "Show Time In Necropolis" PERFORMER "Eric Serra" ISRC FR86U0600119 INDEX 01 00:00:00FILE "35 Timeballs.wav" WAVE TRACK 35 AUDIO TITLE "Timeballs" PERFORMER "Eric Serra" ISRC FR86U0600120 INDEX 01 00:00:00FILE "36 Solid Gate.wav" WAVE TRACK 36 AUDIO TITLE "Solid Gate" PERFORMER "Eric Serra" ISRC FR86U0600121 INDEX 01 00:00:00FILE "37 Eternally Grateful.wav" WAVE TRACK 37 AUDIO TITLE "Eternally Grateful" PERFORMER "Eric Serra" ISRC FR86U0600122 INDEX 01 00:00:00FILE "38 A Beautiful Sunday.wav" WAVE TRACK 38 AUDIO TITLE "A Beautiful Sunday" PERFORMER "Eric Serra" ISRC FR86U0600123 INDEX 01 00:00:00FILE "39 Destruction Of The Seides.wav" WAVE TRACK 39 AUDIO TITLE "Destruction Of The Seides" PERFORMER "Eric Serra" ISRC FR86U0600124 INDEX 01 00:00:00FILE "40 A Bowl Of Rubies.wav" WAVE TRACK 40 AUDIO TITLE "A Bowl Of Rubies" PERFORMER "Eric Serra" ISRC FR86U0600125 INDEX 01 00:00:00FILE "41 Greed And Loneliness.wav" WAVE TRACK 41 AUDIO TITLE "Greed And Loneliness" PERFORMER "Eric Serra" ISRC FR86U0600126 INDEX 01 00:00:00FILE "42 The Minimoys Finale.wav" WAVE TRACK 42 AUDIO TITLE "The Minimoys Finale" PERFORMER "Eric Serra" ISRC FR86U0600127 INDEX 01 00:00:00


Трекер:  [ 14-Ноя-2011 21:28 ]

  

Скачать .torrent

Размер .torrent файла 20 KB


Размер: 439 MB
Хэш (hash) релиза: 93bb42c29a07adcd7c2b038c6798bf2e911c05ba

Еще никто не оставлял запись к записи скачать торрент Артур и минипуты Arthur and The Minimoys . Будь первым!

!Обратная связь