Скачать через торрент музыку Смерть среди айсбергов Кит - убийца бесплатно без регистрации torrent

Если у вас наблюдаются проблемы со скриншотами, переходом по ссылками, скачиванием торрентов - проблемы в блокировщике рекламы AdBlock. #хорошегоДня!


Статистика раздачи
Размер:  178 MB   |    Зарегистрирован:  6 лет   |    .torrent скачан:  48 раз   |   
Раздают:  1  
   
Загрузка...
 
Автор Сообщение

Galfimbul

avatar Galfimbul


Смерть среди айсбергов / Кит - убийца / Orca

Жанр: Score
Композитор: Ennio Morricone
Год выпуска диска: 1993
Год выпуска фильма: 1977
Страна-производитель диска: Италия
Издатель (лейбл): Legend
Номер по каталогу: CD10

Аудиокодек: FLAC (*.flac)
Тип рипа: tracks+.cue
Битрейт аудио: lossless
Продолжительность: 32:05

Источник: lztr.us
Наличие сканов в содержимом раздачи: да

Треклист:
01 Orca (3:09)
02 Early Ices (2:17)
03 Intermezzo (0:39)
04 Dialogue Of The Memories (2:17)
05 The Fight, The Victory, The Death (5:27)
06 A Ball At Home (3:25)
07 Nocturne For A Remorse (1:29)
08 Attack And Mistake (2:59)
09 Opening And Encounter (1:39)
10 Arrival At The Pole (4:43)
11 Orca (Finale) (4:01)

Доп. информация: Одна, наверное, из самых пронзительных музыкальных тем, из когда-либо созданных маэстро Морриконе!
 
EAC extraction logfile from 21. January 2008, 12:02 for CDEnnio Morricone / Orca

Used drive : HL-DT-STDVD-ROM GDR8163B Adapter: 0 ID: 0Read mode : Secure with NO C2, accurate stream, disable cacheRead offset correction : 102Overread into Lead-In and Lead-Out : No

Used output format : C:\Archivos de programa\FLAC\flac.exe (User Defined Encoder) 128 kBit/s Additional command line options : -8 -V -T "ARTIST=%a" -T "TITLE=%t" -T "ALBUM=%g" -T "DATE=%y" -T "TRACKNUMBER=%n" -T "GENRE=%m" -T "COMMENT=EAC FLAC -8" %s

Other options : Fill up missing offset samples with silence : Yes Delete leading and trailing silent blocks : No Native Win32 interface for Win NT & 2000

Track 1 Filename G:\Ennio Morricone - Orca (1993) [FLAC]\disc\01 - Orca.wav

Pre-gap length 0:00:02.00

Peak level 71.5 % Track quality 100.0 % Test CRC F5AD552C Copy CRC F5AD552C Copy OK

Track 2 Filename G:\Ennio Morricone - Orca (1993) [FLAC]\disc\02 - Early ices.wav

Pre-gap length 0:00:02.18

Peak level 49.8 % Track quality 100.0 % Test CRC 9DD0F95F Copy CRC 9DD0F95F Copy OK

Track 3 Filename G:\Ennio Morricone - Orca (1993) [FLAC]\disc\03 - Intermezzo.wav

Pre-gap length 0:00:02.30

Peak level 40.8 % Track quality 100.0 % Test CRC E28178A9 Copy CRC E28178A9 Copy OK

Track 4 Filename G:\Ennio Morricone - Orca (1993) [FLAC]\disc\04 - Dialogue of the memories.wav

Pre-gap length 0:00:02.20

Peak level 50.2 % Track quality 100.0 % Test CRC 3DF003D3 Copy CRC 3DF003D3 Copy OK

Track 5 Filename G:\Ennio Morricone - Orca (1993) [FLAC]\disc\05 - The fight, the victory, the death.wav

Pre-gap length 0:00:02.40

Peak level 77.5 % Track quality 100.0 % Test CRC A5351586 Copy CRC A5351586 Copy OK

Track 6 Filename G:\Ennio Morricone - Orca (1993) [FLAC]\disc\06 - A ball at home.wav

Pre-gap length 0:00:02.42

Peak level 100.0 % Track quality 100.0 % Test CRC 91A71E6F Copy CRC 91A71E6F Copy OK

Track 7 Filename G:\Ennio Morricone - Orca (1993) [FLAC]\disc\07 - Nocturne for a remorse.wav

Pre-gap length 0:00:04.42

Peak level 62.1 % Track quality 100.0 % Test CRC 7F836C76 Copy CRC 7F836C76 Copy OK

Track 8 Filename G:\Ennio Morricone - Orca (1993) [FLAC]\disc\08 - Attack and mistake.wav

Pre-gap length 0:00:01.98

Peak level 75.0 % Track quality 100.0 % Test CRC 25EF4E4C Copy CRC 25EF4E4C Copy OK

Track 9 Filename G:\Ennio Morricone - Orca (1993) [FLAC]\disc\09 - Opening and encounter.wav

Pre-gap length 0:00:02.09

Peak level 55.8 % Track quality 99.8 % Test CRC 7E400AA2 Copy CRC 7E400AA2 Copy OK

Track 10 Filename G:\Ennio Morricone - Orca (1993) [FLAC]\disc\10 - Arrival at the Pole.wav

Pre-gap length 0:00:02.60

Peak level 53.1 % Track quality 100.0 % Test CRC 4AEE468D Copy CRC 4AEE468D Copy OK

Track 11 Filename G:\Ennio Morricone - Orca (1993) [FLAC]\disc\11 - Orca (Finale).wav

Pre-gap length 0:00:02.49

Peak level 93.4 % Track quality 100.0 % Test CRC 3A6681C4 Copy CRC 3A6681C4 Copy OK

No errors occured

End of status report
 
REM GENRE SoundtrackREM DATE 1977REM DISCID 7107850BREM COMMENT "ExactAudioCopy v0.95b3"PERFORMER "Ennio Morricone"TITLE "Orca"FILE "01 Orca.wav" WAVE TRACK 01 AUDIO TITLE "Orca" PERFORMER "Ennio Morricone" INDEX 01 00:00:00 TRACK 02 AUDIO TITLE "Early Ices" PERFORMER "Ennio Morricone" INDEX 00 03:06:69FILE "02 Early Ices.wav" WAVE INDEX 01 00:00:00 TRACK 03 AUDIO TITLE "Intermezzo" PERFORMER "Ennio Morricone" INDEX 00 02:14:24FILE "03 Intermezzo.wav" WAVE INDEX 01 00:00:00 TRACK 04 AUDIO TITLE "Dialogue Of The Memories" PERFORMER "Ennio Morricone" INDEX 00 00:36:33FILE "04 Dialogue Of The Memories.wav" WAVE INDEX 01 00:00:00 TRACK 05 AUDIO TITLE "The Fight, The Victory, The Death" PERFORMER "Ennio Morricone" INDEX 00 02:14:70FILE "05 The Fight, The Victory, The Death.wav" WAVE INDEX 01 00:00:00 TRACK 06 AUDIO TITLE "A Ball At Home" PERFORMER "Ennio Morricone" INDEX 00 05:24:10FILE "06 A Ball At Home.wav" WAVE INDEX 01 00:00:00 TRACK 07 AUDIO TITLE "Nocturne For A Remorse" PERFORMER "Ennio Morricone" INDEX 00 03:20:48FILE "07 Nocturne For A Remorse.wav" WAVE INDEX 01 00:00:00 TRACK 08 AUDIO TITLE "Attack And Mistake" PERFORMER "Ennio Morricone" INDEX 00 01:27:21FILE "08 Attack And Mistake.wav" WAVE INDEX 01 00:00:00 TRACK 09 AUDIO TITLE "Opening And Encounter" PERFORMER "Ennio Morricone" INDEX 00 02:57:23FILE "09 Opening And Encounter.wav" WAVE INDEX 01 00:00:00 TRACK 10 AUDIO TITLE "Arrival At The Pole" PERFORMER "Ennio Morricone" INDEX 00 01:36:50FILE "10 Arrival At The Pole.wav" WAVE INDEX 01 00:00:00 TRACK 11 AUDIO TITLE "Orca (Finale)" PERFORMER "Ennio Morricone" INDEX 00 04:40:51FILE "11 Orca (Finale).wav" WAVE INDEX 01 00:00:00
 
AUDIOCHECKER v2.0 beta (build 457) - by Dester - opdester@freemail.hu~~~~~~~~~~~~~~~~~~~~~~~~~~~~~~~~~~-=== DO NOT EDIT THIS FILE! ===-

Path: ...\Ennio Morricone - Orca (1977) (CD, 1993) FLAC

01 -=- 01 Orca.flac -=- CDDA (100%)02 -=- 02 Early Ices.flac -=- CDDA (99%)03 -=- 03 Intermezzo.flac -=- CDDA (100%)04 -=- 04 Dialogue Of The Memories.flac -=- CDDA (100%)05 -=- 05 The Fight, The Victory, The Death.flac -=- CDDA (100%)06 -=- 06 A Ball At Home.flac -=- CDDA (100%)07 -=- 07 Nocturne For A Remorse.flac -=- CDDA (99%)08 -=- 08 Attack And Mistake.flac -=- CDDA (100%)09 -=- 09 Opening And Encounter.flac -=- CDDA (100%)10 -=- 10 Arrival At The Pole.flac -=- CDDA (100%)11 -=- 11 Orca (Finale).flac -=- CDDA (100%)

Summary 99,82% CDDA

60060052


Трекер:  [ 02-Дек-2011 19:12 ]

  

Скачать .torrent

Размер .torrent файла 15 KB


Размер: 178 MB
Хэш (hash) релиза: 6776c0dbd9a8458529d2d1b8b4aba125cb57763b

Еще никто не оставлял запись к записи скачать торрент Смерть среди айсбергов Кит - убийца . Будь первым!

!Обратная связь