Скачать через торрент музыку Железный орёл Iron Eagle - 1994 бесплатно без регистрации torrent

Если у вас наблюдаются проблемы со скриншотами, переходом по ссылками, скачиванием торрентов - проблемы в блокировщике рекламы AdBlock. #хорошегоДня!


Статистика раздачи
Размер:  258 MB   |    Зарегистрирован:  6 лет   |    .torrent скачан:  36 раз   |   
Раздают:  1  
   
Загрузка...
 
Автор Сообщение

Galfimbul

avatar Galfimbul


Железный орёл / Iron Eagle
Жанр: Soundtrack
Год выхода фильма: 1986
Год выпуска диска: 1994
Производитель диска: Япония
Аудио кодек: FLAC
Тип рипа: image+.cue
Битрейт аудио: lossless
Продолжительность: 41:03
Рип: Не мой. Все благодарности уходят к ikebana.

Треклист:
01. One Vision (Queen) (04:04)
02. Iron Eagle (Never Say Die) (King Kobra) (03:34)
03. These Are The Good Times (Eric Martin) (03:48)
04. Maniac House (Katrina & The Waves) (04:55)
05. Intense (George Clinton) (04:34)
06. Hide In The Rainbow (Dio) (03:58)
07. It's Too Late (Helix) (03:09)
08. Road Of The Gypsy (Adrenalin) (04:29)
09. Love Can Make You Cry (Urgent) (04:21)
10. This Raging Fire (The Jon Butcher Axis) (04:11)

Доп. информация:
Лейбл: CAPITOL/EMI
Каталожный номер: TOCP-8393
Матрица: TOCP-8393 1 (SONY)
 
Exact Audio Copy V0.99 prebeta 5 from 4. May 2009

Отчёт EAC об извлечении, выполненном 30. августа 2011, 10:14

Various / Iron Eagle OST [TOCP-8393]

Дисковод: Optiarc DVD RW AD-7200A Adapter: 1 ID: 0

Режим чтения : ДостоверностьИспользование точного потока : ДаОтключение кэша аудио : ДаИспользование указателей C2 : Нет

Коррекция смещения при чтении : 48Способность читать области Lead-in и Lead-out : НетЗаполнение пропущенных сэмплов тишиной : ДаУдаление блоков с тишиной в начале и конце : НетПри вычислениях CRC использовались нулевые сэмплы : ДаИнтерфейс : Встроенный Win32-интерфейс для Win NT/2000

Выходной формат : Пользовательский кодировщикВыбранный битрейт : 128 kBit/sКачество : ВысокийДобавление ID3-тэга : НетУтилита сжатия : C:\Program Files\Exact Audio Copy\Flac\flac.exeДополнительные параметры : -8 -V -T "artist=%a" -T "title=%t" -T "album=%g" -T "date=%y" -T "tracknumber=%n" -T "genre=%m" -T "comment=EAC

TOC извлечённого CD

Трек | Старт | Длительность | Начальный сектор | Конечный сектор --------------------------------------------------------------------- 1 | 0:00.00 | 4:03.60 | 0 | 18284 2 | 4:03.60 | 3:33.70 | 18285 | 34329 3 | 7:37.55 | 3:48.12 | 34330 | 51441 4 | 11:25.67 | 4:54.73 | 51442 | 73564 5 | 16:20.65 | 4:34.35 | 73565 | 94149 6 | 20:55.25 | 3:58.05 | 94150 | 112004 7 | 24:53.30 | 3:08.57 | 112005 | 126161 8 | 28:02.12 | 4:29.35 | 126162 | 146371 9 | 32:31.47 | 4:20.50 | 146372 | 165921 10 | 36:52.22 | 4:10.38 | 165922 | 184709

Характеристики диапазона извлечения и сообщения об ошибках

Выбранный диапазон

Имя файла Y:\Музыка\VA\1986 Iron Eagle OST\VA - Iron Eagle OST [TOCP-8393].wav

Пиковый уровень 100.0 % Качество диапазона 100.0 % CRC теста 4E45C615 CRC копии 4E45C615 Копирование... OK

Ошибок не произошло

AccurateRip: сводка

Трек 1 точное извлечение (доверие 2) [0E064EAD]Трек 2 точное извлечение (доверие 2) [5815640C]Трек 3 точное извлечение (доверие 2) [8D2F5863]Трек 4 точное извлечение (доверие 2) [6526F467]Трек 5 точное извлечение (доверие 2) [28172B17]Трек 6 точное извлечение (доверие 2) [D7BF2966]Трек 7 точное извлечение (доверие 2) [E75D0204]Трек 8 точное извлечение (доверие 2) [135EC04D]Трек 9 точное извлечение (доверие 2) [27FC6E89]Трек 10 точное извлечение (доверие 2) [C5A1FFEE]

Все треки извлечены точно

Конец отчёта
 
REM GENRE "Rock/Hard Rock"REM DATE 1986REM DISCID 97099E0AREM COMMENT "ExactAudioCopy v0.99pb5"PERFORMER "Various"TITLE "Iron Eagle OST [TOCP-8393]"FILE "VA - Iron Eagle OST [TOCP-8393].flac" WAVE TRACK 01 AUDIO TITLE "One Vision" PERFORMER "Queen" INDEX 01 00:00:00 TRACK 02 AUDIO TITLE "Iron Eagle (Never Say Die)" PERFORMER "King Kobra" INDEX 00 04:02:20 INDEX 01 04:03:60 TRACK 03 AUDIO TITLE "These Are The Good Times" PERFORMER "Eric Martin" INDEX 00 07:35:34 INDEX 01 07:37:55 TRACK 04 AUDIO TITLE "Maniac House" PERFORMER "Katrina & The Waves" INDEX 00 11:24:60 INDEX 01 11:25:67 TRACK 05 AUDIO TITLE "Intense" PERFORMER "George Clinton" INDEX 00 16:18:70 INDEX 01 16:20:65 TRACK 06 AUDIO TITLE "Hide In The Rainbow" PERFORMER "Dio" INDEX 00 20:53:10 INDEX 01 20:55:25 TRACK 07 AUDIO TITLE "It's Too Late" PERFORMER "Helix" INDEX 00 24:52:52 INDEX 01 24:53:30 TRACK 08 AUDIO TITLE "Road Of The Gypsy" PERFORMER "Adrenalin" INDEX 00 28:01:12 INDEX 01 28:02:12 TRACK 09 AUDIO TITLE "Love Can Make You Cry" PERFORMER "Urgent" INDEX 00 32:28:70 INDEX 01 32:31:47 TRACK 10 AUDIO TITLE "This Raging Fire" PERFORMER "The Jon Butcher Axis" INDEX 00 36:51:40 INDEX 01 36:52:22


Трекер:  [ 02-Дек-2011 19:03 ]

  

Скачать .torrent

Размер .torrent файла 11 KB


Размер: 258 MB
Хэш (hash) релиза: e6d0f1af7b1f35182073971e9fe96dfa07371137

Еще никто не оставлял запись к записи скачать торрент Железный орёл Iron Eagle - 1994 . Будь первым!

!Обратная связь