Скачать через торрент музыку K.D. lang бесплатно без регистрации torrent

Если у вас наблюдаются проблемы со скриншотами, переходом по ссылками, скачиванием торрентов - проблемы в блокировщике рекламы AdBlock. #хорошегоДня!


Статистика раздачи
Размер:  134 MB   |    Зарегистрирован:  6 лет   |    .torrent скачан:  27 раз   |   
Раздают:  1  
   
Загрузка...
 
Автор Сообщение

Galfimbul

avatar Galfimbul


K.D. lang (KD lang) - Constant craving

Страна: Канада
Жанр: Country, pop
Продолжительность: 00:03:56
Год выпуска: 1992 г.

Описание: Клип канадской певицы K.D. lang на песню "Constant craving" 1992 года.

Качество: SATRip
Контейнер: VOB
Видео кодек: MPEG2
Аудио кодек: MPEG Audio
Видео: MPEG2 Video 720x576 (4:3) 25.00fps 4380kbps [Video]
Аудио: MPEG Audio 48000Hz stereo 256kbps [Audio]
General
Complete name : K:\РАЗДАЧИ\Clips\K.D. lang - Constant craving.VOB
Format : MPEG-PS
File size : 134 MiB
Duration : 3mn 56s
Overall bit rate : 4 765 Kbps

Video
ID : 224 (0xE0)
Format : MPEG Video
Format version : Version 2
Format profile : Main@Main
Format settings, Matrix : Default
Duration : 3mn 56s
Bit rate mode : Constant
Bit rate : 4 320 Kbps
Nominal bit rate : 4 380 Kbps
Width : 720 pixels
Height : 576 pixels
Display aspect ratio : 4:3
Frame rate : 25.000 fps
Standard : PAL
Colorimetry : 4:2:0
Scan type : Interlaced
Scan order : Top Field First
Bits/(Pixel*Frame) : 0.417
Stream size : 122 MiB (91%)

Audio
ID : 192 (0xC0)
Format : MPEG Audio
Format version : Version 1
Format profile : Layer 2
Duration : 3mn 56s
Bit rate mode : Constant
Bit rate : 256 Kbps
Channel(s) : 2 channels
Sampling rate : 48.0 KHz
Resolution : 16 bits
Video delay : -536ms
Stream size : 7.21 MiB (5%)

Menu


Трекер:  [ 07-Дек-2011 16:56 ]

  

Скачать .torrent

Размер .torrent файла 11 KB


Размер: 134 MB
Хэш (hash) релиза: 41f75893546a0314dbcb5557894939dd825ca436

Еще никто не оставлял запись к записи скачать торрент K.D. lang . Будь первым!

!Обратная связь