Скачать через торрент музыку Алексей Архиповский - "Дорога домой" бесплатно без регистрации torrent

Если у вас наблюдаются проблемы со скриншотами, переходом по ссылками, скачиванием торрентов - проблемы в блокировщике рекламы AdBlock. #хорошегоДня!


Статистика раздачи
Размер:  704 MB   |    Зарегистрирован:  6 лет   |    .torrent скачан:  76 раз   |   
Раздают:  1  
   
Загрузка...
 
Автор Сообщение

Galfimbul

avatar Galfimbul


Алексей Архиповский - "Дорога домой" '2011

Страна: Россия
Жанр: Folk, Instrumental
Продолжительность: 00:56:09
Год выпуска: 2011 г.
Описание: Концерт в Светлановском (Большом) зале Московского международного Дома музыки на Красных Холмах.
Записан 28 апреля 2011 года.
Транслировался телеканалом Россия-К ("Культура") 11 июня 2011 г. в 23.35.

Треклист:
"Прелесть"
"Ваня"
"Шарманка"
"Человече"
"Дорога домой"
"Восточная"
"Золушка"

Доп. информация: Записан с IPTV-источника, обработан и пережат в "бытовой" размер и стандарт.
Спасибо intellect - за его "первичный" DVD-релиз этого концерта в общем, и треклист из его релиза в частности ))).
General
Format: AVI
Format/Info: Audio Video Interleave
File size: 704 MiB
Duration: 56mn 9s
Overall bit rate: 1 752 Kbps
Writing application: VirtualDubMod 1.5.10.2 (build 2540/release)
Writing library: VirtualDubMod build 2540/release

Video
ID: 0
Format: MPEG-4 Visual
Format settings, BVOP: 1
Format settings, QPel: No
Format settings, GMC: No warppoints
Format settings, Matrix : Default (H.263)
Muxing mode: Packed bitstream
Codec ID: DX50
Codec ID/Hint: DivX 5
Duration: 56mn 9s
Bit rate: 1 550 Kbps
Width: 704 pixels
Height: 432 pixels
Display aspect ratio: 1.630
Frame rate: 25.000 fps
Color space: YUV
Chroma subsampling: 4:2:0
Bit depth: 8 bits
Scan type: Progressive
Compression mode: Lossy
Bits/(Pixel*Frame): 0.204
Stream size: 623 MiB (88%)
Writing library: DivX 6.8.5 (UTC 2009-08-20)

Audio
ID: 1
Format: MPEG Audio
Format version: Version 1
Format profile: Layer 3
Codec ID: 55
Codec ID/Hint: MP3
Duration: 56mn 9s
Bit rate mode: Constant
Bit rate: 192 Kbps
Channel(s): 2 channels
Sampling rate: 48.0 KHz
Compression mode: Lossy
Delay relative to video: 16ms
Stream size: 77.1 MiB (11%)
Alignment: Split accross interleaves
Interleave, duration: 40 ms (1.00 video frame)
Interleave, preload duration: 500 ms
Источник: собственный рип с IPTV

Качество: TVRip
Контейнер: AVI
Видео кодек: DivX
Аудиокодек: MP3
Видео: DivX 5 (DivX 6.8.5), 704x432 px (aspect ratio 1.63), ~1550 kBps, 25 FpS
Аудио: MP3, 192 kBps constant, 48kHz, 2 channel

Трекер:  [ 07-Дек-2011 17:08 ]

  

Скачать .torrent

Размер .torrent файла 14 KB


Размер: 704 MB
Хэш (hash) релиза: 46341e7c465a70a1800cb3a533a2b090ea5588e0

Еще никто не оставлял запись к записи скачать торрент Алексей Архиповский - "Дорога домой" . Будь первым!

!Обратная связь