Скачать через торрент музыку Человек океана: Экстремальное Погружение Ocean Men: Extreme Dive бесплатно без регистрации torrent

Если у вас наблюдаются проблемы со скриншотами, переходом по ссылками, скачиванием торрентов - проблемы в блокировщике рекламы AdBlock. #хорошегоДня!


Статистика раздачи
Размер:  455 MB   |    Зарегистрирован:  5 лет 10 месяцев   |    .torrent скачан:  28 раз   |   
Раздают:  1  
   
Загрузка...
 
Автор Сообщение

uzi2009

avatar uzi2009


Человек океана: Экстремальное Погружение | Ocean Men: Extreme Dive



Жанр: Score / Soundtrack
Композитор: Cliff Eidelman & VA
Год выпуска диска: 2001
Страна-производитель диска: Germany
Издатель (лейбл): Warner Music
Номер по каталогу: 8573 89479-2
Аудио кодек: FLAC (*.flac)
Тип рипа: tracks+.cue
Битрейт аудио: lossless
Продолжительность:01:14:20
Наличие сканов в содержимом раздачи: да

Треклист:
1. A Day Without Rain (02:39)
Performed by Enya
2. Lazy Days (03:43)
Performed by Enya
3. World Looking In (03:38)
Performed by Morcheeba
4. En El Muelle De San Blas (04:19)
Performed by Mana
5. The River (04:57)
Performed by Cultured Pearls
6. Songs of the Seas (06:12)
Performed by Vangelis
7. Oceania (03:22)
Performed by Mike Oldfield
8. Minor Earth, Major Sky (04:02)
Performed by A-HA
9. Gebet an den Planet (06:10)
Performed by Thomas D.
10. Welcome To Blue World (03:15)
Performed by Quintilian featuring Miriam Dee
Score by Cliff Eidelman:
11. Stargate (03:36)
12. The Birth of Free Diving (03:20)
13. Rivalry (02:16)
14. Climbing The Mountain (02:20)
15. Into The Blue (02:57)
16. Ocean Being (05:12)
17. The Science of Free Diving (01:09)
18. Water Dance (01:14)
19. Pipin's World Record (04:06)
20. Prelude (01:47)
21. Umberto's World Record (03:16)
22. Ocean Men (00:50)
 
Exact Audio Copy V1.0 beta 3 from 29. August 2011

EAC extraction logfile from 1. December 2011, 15:08

Various / Ocean Men

Used drive : Optiarc DVD RW AD-7283S Adapter: 1 ID: 1

Read mode : SecureUtilize accurate stream : YesDefeat audio cache : YesMake use of C2 pointers : No

Read offset correction : 48Overread into Lead-In and Lead-Out : YesFill up missing offset samples with silence : YesDelete leading and trailing silent blocks : NoNull samples used in CRC calculations : YesUsed interface : Installed external ASPI interfaceGap handling : Appended to previous track

Used output format : User Defined EncoderSelected bitrate : 1024 kBit/sQuality : HighAdd ID3 tag : NoCommand line compressor : C:\Program Files\Exact Audio Copy\Flac\flac.exeAdditional command line options : -V -8 -T "Genre=%genre%" -T "Artist=%artist%" -T "Title=%title%" -T "Album=%albumtitle%" -T "Date=%year%" -T "Tracknumber=%tracknr%" -T "Comment=%comment%" %source%

TOC of the extracted CD

Track | Start | Length | Start sector | End sector --------------------------------------------------------- 1 | 0:00.00 | 2:39.00 | 0 | 11924 2 | 2:39.00 | 3:43.04 | 11925 | 28653 3 | 6:22.04 | 3:38.16 | 28654 | 45019 4 | 10:00.20 | 4:19.46 | 45020 | 64490 5 | 14:19.66 | 4:57.73 | 64491 | 86838 6 | 19:17.64 | 6:12.51 | 86839 | 114789 7 | 25:30.40 | 3:22.35 | 114790 | 129974 8 | 28:53.00 | 4:02.09 | 129975 | 148133 9 | 32:55.09 | 6:10.32 | 148134 | 175915 10 | 39:05.41 | 3:15.62 | 175916 | 190602 11 | 42:21.28 | 3:36.27 | 190603 | 206829 12 | 45:57.55 | 3:20.47 | 206830 | 221876 13 | 49:18.27 | 2:16.33 | 221877 | 232109 14 | 51:34.60 | 2:20.24 | 232110 | 242633 15 | 53:55.09 | 2:57.54 | 242634 | 255962 16 | 56:52.63 | 5:12.60 | 255963 | 279422 17 | 62:05.48 | 1:09.38 | 279423 | 284635 18 | 63:15.11 | 1:14.25 | 284636 | 290210 19 | 64:29.36 | 4:06.26 | 290211 | 308686 20 | 68:35.62 | 1:47.57 | 308687 | 316768 21 | 70:23.44 | 3:16.22 | 316769 | 331490 22 | 73:39.66 | 0:50.09 | 331491 | 335249

Track 1

Filename F:\torrent\Ocean Men_OST\ost\01 A Day Without Rain.wav

Pre-gap length 0:00:02.00

Peak level 88.5 % Extraction speed 2.0 X Track quality 99.9 % Test CRC 1D497582 Copy CRC 1D497582 Accurately ripped (confidence 3) [07F60733] (AR v1) Copy OK

Track 2

Filename F:\torrent\Ocean Men_OST\ost\02 Lazy Days.wav

Pre-gap length 0:00:01.57

Peak level 99.4 % Extraction speed 2.7 X Track quality 100.0 % Test CRC 208E7D09 Copy CRC 208E7D09 Accurately ripped (confidence 3) [47DB1ABD] (AR v1) Copy OK

Track 3

Filename F:\torrent\Ocean Men_OST\ost\03 World looking In.wav

Pre-gap length 0:00:01.57

Peak level 98.8 % Extraction speed 2.9 X Track quality 100.0 % Test CRC C57F70AA Copy CRC C57F70AA Accurately ripped (confidence 3) [560164AC] (AR v1) Copy OK

Track 4

Filename F:\torrent\Ocean Men_OST\ost\04 En El Muelle De San Blas.wav

Pre-gap length 0:00:01.57

Peak level 70.7 % Extraction speed 2.9 X Track quality 99.9 % Test CRC 4E271998 Copy CRC 4E271998 Accurately ripped (confidence 3) [879B97DA] (AR v1) Copy OK

Track 5

Filename F:\torrent\Ocean Men_OST\ost\05 The River.wav

Pre-gap length 0:00:01.57

Peak level 100.0 % Extraction speed 3.5 X Track quality 100.0 % Test CRC F7E26754 Copy CRC F7E26754 Accurately ripped (confidence 3) [E28B3C69] (AR v1) Copy OK

Track 6

Filename F:\torrent\Ocean Men_OST\ost\06 Songs Of The Seas.wav

Pre-gap length 0:00:01.56

Peak level 99.9 % Extraction speed 3.9 X Track quality 100.0 % Test CRC ECF80062 Copy CRC ECF80062 Accurately ripped (confidence 3) [C51D0B6F] (AR v1) Copy OK

Track 7

Filename F:\torrent\Ocean Men_OST\ost\07 Oceania.wav

Pre-gap length 0:00:01.57

Peak level 99.9 % Extraction speed 3.8 X Track quality 100.0 % Test CRC 759DFF38 Copy CRC 759DFF38 Accurately ripped (confidence 3) [5C936FCE] (AR v1) Copy OK

Track 8

Filename F:\torrent\Ocean Men_OST\ost\08 Minor Earth, Major Sky.wav

Pre-gap length 0:00:01.57

Peak level 70.7 % Extraction speed 4.1 X Track quality 100.0 % Test CRC C8619575 Copy CRC C8619575 Accurately ripped (confidence 3) [65B9419F] (AR v1) Copy OK

Track 9

Filename F:\torrent\Ocean Men_OST\ost\09 Gebet an den Planet.wav

Pre-gap length 0:00:01.57

Peak level 77.6 % Extraction speed 4.5 X Track quality 100.0 % Test CRC 5764B3B4 Copy CRC 5764B3B4 Accurately ripped (confidence 3) [EC9F7DE9] (AR v1) Copy OK

Track 10

Filename F:\torrent\Ocean Men_OST\ost\10 Welcome To The Blue World.wav

Pre-gap length 0:00:01.57

Peak level 99.9 % Extraction speed 4.3 X Track quality 100.0 % Test CRC CD8C5AD7 Copy CRC CD8C5AD7 Accurately ripped (confidence 3) [8AF5EFAB] (AR v1) Copy OK

Track 11

Filename F:\torrent\Ocean Men_OST\ost\11 Stargate.wav

Pre-gap length 0:00:01.57

Peak level 63.0 % Extraction speed 4.5 X Track quality 100.0 % Test CRC AFC10A92 Copy CRC AFC10A92 Accurately ripped (confidence 4) [1AA01388] (AR v1) Copy OK

Track 12

Filename F:\torrent\Ocean Men_OST\ost\12 The Birth Of Free Diving.wav

Peak level 63.2 % Extraction speed 4.6 X Track quality 100.0 % Test CRC B6FF3A1F Copy CRC B6FF3A1F Accurately ripped (confidence 4) [11964878] (AR v1) Copy OK

Track 13

Filename F:\torrent\Ocean Men_OST\ost\13 Rivalry.wav

Peak level 95.6 % Extraction speed 3.6 X Track quality 99.9 % Test CRC 542B08D8 Copy CRC 542B08D8 Accurately ripped (confidence 4) [FD73855A] (AR v1) Copy OK

Track 14

Filename F:\torrent\Ocean Men_OST\ost\14 Climbing The Mountain.wav

Peak level 99.9 % Extraction speed 4.4 X Track quality 100.0 % Test CRC D3DA89B1 Copy CRC D3DA89B1 Accurately ripped (confidence 4) [2B8D11FE] (AR v1) Copy OK

Track 15

Filename F:\torrent\Ocean Men_OST\ost\15 Into The Blue.wav

Peak level 39.8 % Extraction speed 4.7 X Track quality 100.0 % Test CRC C4B9F906 Copy CRC C4B9F906 Accurately ripped (confidence 4) [1A900E1C] (AR v1) Copy OK

Track 16

Filename F:\torrent\Ocean Men_OST\ost\16 Ocean Being.wav

Peak level 80.5 % Extraction speed 5.2 X Track quality 100.0 % Test CRC 29E60985 Copy CRC 29E60985 Accurately ripped (confidence 4) [A79EDCC3] (AR v1) Copy OK

Track 17

Filename F:\torrent\Ocean Men_OST\ost\17 The Science Of Free Diving.wav

Peak level 12.5 % Extraction speed 3.9 X Track quality 100.0 % Test CRC 9BACA105 Copy CRC 9BACA105 Accurately ripped (confidence 4) [06A98D79] (AR v1) Copy OK

Track 18

Filename F:\torrent\Ocean Men_OST\ost\18 Water Dance.wav

Peak level 31.7 % Extraction speed 3.0 X Track quality 99.8 % Test CRC A3C81CAC Copy CRC A3C81CAC Accurately ripped (confidence 4) [788C5272] (AR v1) Copy OK

Track 19

Filename F:\torrent\Ocean Men_OST\ost\19 Pipin's World Record.wav

Peak level 100.0 % Extraction speed 4.7 X Track quality 99.9 % Test CRC 872A09A1 Copy CRC 872A09A1 Accurately ripped (confidence 4) [634297E1] (AR v1) Copy OK

Track 20

Filename F:\torrent\Ocean Men_OST\ost\20 Prelude.wav

Peak level 10.3 % Extraction speed 4.6 X Track quality 100.0 % Test CRC 297CB7B9 Copy CRC 297CB7B9 Accurately ripped (confidence 4) [571EA9EC] (AR v1) Copy OK

Track 21

Filename F:\torrent\Ocean Men_OST\ost\21 Umberto's World Record.wav

Peak level 89.5 % Extraction speed 5.3 X Track quality 100.0 % Test CRC 04764414 Copy CRC 04764414 Accurately ripped (confidence 4) [00507203] (AR v1) Copy OK

Track 22

Filename F:\torrent\Ocean Men_OST\ost\22 Ocean Men.wav

Peak level 62.0 % Extraction speed 5.3 X Track quality 99.7 % Test CRC 5738FFE0 Copy CRC 5738FFE0 Accurately ripped (confidence 3) [ADFD8245] (AR v1) Copy OK

All tracks accurately ripped

No errors occurred

End of status report

==== Log checksum D487E69C4EC5D84198993B476F41D4A529504614CFE4691E6891F017AE687569 ====
 
REM GENRE SoundtrackREM DATE 2001REM DISCID 4C117616REM COMMENT "ExactAudioCopy v1.0b3"CATALOG 0685738947928PERFORMER "Various"TITLE "Ocean Men"FILE "01 A Day Without Rain.wav" WAVE TRACK 01 AUDIO TITLE "A Day Without Rain" PERFORMER "Enya" ISRC GBAHT0005370 INDEX 01 00:00:00 TRACK 02 AUDIO TITLE "Lazy Days" PERFORMER "Enya" ISRC GBAHT0005380 INDEX 00 02:37:18FILE "02 Lazy Days.wav" WAVE INDEX 01 00:00:00 TRACK 03 AUDIO TITLE "World looking In" PERFORMER "Morcheeba" ISRC GBAHS0104399 INDEX 00 03:41:22FILE "03 World looking In.wav" WAVE INDEX 01 00:00:00 TRACK 04 AUDIO TITLE "En El Muelle De San Blas" PERFORMER "Mana" ISRC MXF150100146 INDEX 00 03:36:34FILE "04 En El Muelle De San Blas.wav" WAVE INDEX 01 00:00:00 TRACK 05 AUDIO TITLE "The River" PERFORMER "Cultured Pearls" ISRC DEA620101833 INDEX 00 04:17:64FILE "05 The River.wav" WAVE INDEX 01 00:00:00 TRACK 06 AUDIO TITLE "Songs Of The Seas" PERFORMER "Vangelis" ISRC GBAHS9601045 INDEX 00 04:56:17FILE "06 Songs Of The Seas.wav" WAVE INDEX 01 00:00:00 TRACK 07 AUDIO TITLE "Oceania" PERFORMER "Mike Oldfield" INDEX 00 06:10:69FILE "07 Oceania.wav" WAVE INDEX 01 00:00:00 TRACK 08 AUDIO TITLE "Minor Earth, Major Sky" PERFORMER "A-HA" ISRC DEA620000492 INDEX 00 03:20:53FILE "08 Minor Earth, Major Sky.wav" WAVE INDEX 01 00:00:00 TRACK 09 AUDIO TITLE "Gebet an den Planet" PERFORMER "Thomas D." ISRC DEE860100272 INDEX 00 04:00:27FILE "09 Gebet an den Planet.wav" WAVE INDEX 01 00:00:00 TRACK 10 AUDIO TITLE "Welcome To The Blue World" PERFORMER "Quintillian feat. Mirian Dee" ISRC DEA620101848 INDEX 00 06:08:50FILE "10 Welcome To The Blue World.wav" WAVE INDEX 01 00:00:00 TRACK 11 AUDIO TITLE "Stargate" PERFORMER "Cliff Eidelman" ISRC DEA620101801 INDEX 00 03:14:05FILE "11 Stargate.wav" WAVE INDEX 01 00:00:00FILE "12 The Birth Of Free Diving.wav" WAVE TRACK 12 AUDIO TITLE "The Birth Of Free Diving" PERFORMER "Cliff Eidelman" ISRC DEA620101802 INDEX 01 00:00:00FILE "13 Rivalry.wav" WAVE TRACK 13 AUDIO TITLE "Rivalry" PERFORMER "Cliff Eidelman" ISRC DEA620101804 INDEX 01 00:00:00FILE "14 Climbing The Mountain.wav" WAVE TRACK 14 AUDIO TITLE "Climbing The Mountain" PERFORMER "Cliff Eidelman" ISRC DEA620101805 INDEX 01 00:00:00FILE "15 Into The Blue.wav" WAVE TRACK 15 AUDIO TITLE "Into The Blue" PERFORMER "Cliff Eidelman" ISRC DEA620101806 INDEX 01 00:00:00FILE "16 Ocean Being.wav" WAVE TRACK 16 AUDIO TITLE "Ocean Being" PERFORMER "Cliff Eidelman" ISRC DEA620101807 INDEX 01 00:00:00FILE "17 The Science Of Free Diving.wav" WAVE TRACK 17 AUDIO TITLE "The Science Of Free Diving" PERFORMER "Cliff Eidelman" ISRC DEA620101808 INDEX 01 00:00:00FILE "18 Water Dance.wav" WAVE TRACK 18 AUDIO TITLE "Water Dance" PERFORMER "Cliff Eidelman" ISRC DEA620101809 INDEX 01 00:00:00FILE "19 Pipin's World Record.wav" WAVE TRACK 19 AUDIO TITLE "Pipin's World Record" PERFORMER "Cliff Eidelman" ISRC DEA620101810 INDEX 01 00:00:00FILE "20 Prelude.wav" WAVE TRACK 20 AUDIO TITLE "Prelude" PERFORMER "Cliff Eidelman" ISRC DEA620101811 INDEX 01 00:00:00FILE "21 Umberto's World Record.wav" WAVE TRACK 21 AUDIO TITLE "Umberto's World Record" PERFORMER "Cliff Eidelman" ISRC DEA620101812 INDEX 01 00:00:00FILE "22 Ocean Men.wav" WAVE TRACK 22 AUDIO TITLE "Ocean Men" PERFORMER "Cliff Eidelman" ISRC DEA620101814 INDEX 01 00:00:00


Трекер:  [ 19-Янв-2012 22:06 ]

  

Скачать .torrent

Размер .torrent файла 20 KB


Размер: 455 MB
Хэш (hash) релиза: 65b5e24969769cfc2e3b38139940c1703ed66989

bot

Топик был перенесен в форум Саундтреки к фильмам и мультфильмам (lossless)

Перенес uzi2009

Хотите добавить комментарий к записи скачать торрент Человек океана: Экстремальное Погружение Ocean Men: Extreme Dive

!Обратная связь