Скачать через торрент музыку The Aggrolites - Complicated Girl бесплатно без регистрации torrent

Если у вас наблюдаются проблемы со скриншотами, переходом по ссылками, скачиванием торрентов - проблемы в блокировщике рекламы AdBlock. #хорошегоДня!


Статистика раздачи
Размер:  30 MB   |    Зарегистрирован:  5 лет 11 месяцев   |    .torrent скачан:  31 раз   |   
Раздают:  1  
   
Загрузка...
 
Автор Сообщение

_N_

avatar _N_


The Aggrolites - Complicated Girl

Страна: USA | Жанр: Ska, Reggae | Продолжительность: 00:02:27 | Год выпуска: 2011 | Качество: HDTVRip | Контейнер: mp4 | Видео кодек: H.264 | Аудио кодек: AAC

Видео: AVC, 1280x720, 1 600 Kbps, 24.00 fps
Аудио: AAC, 115 Kbps, 44.1 KHz, 2 channels

Описание: Музыкальный клип на песню "Complicated Girl" с нового альбома "Rugged Road"
Качество хромает, как найду лучше качеством обязательно обновлю раздачу
General
Complete name : E:\Music\RuTracker\Aggrolites, The (Video)\The Aggrolites - Complicated Girl.mp4
Format : MPEG-4
Format profile : Base Media
Codec ID : isom
File size : 30.3 MiB
Duration : 2mn 27s
Overall bit rate : 1 720 Kbps
Writing application : Lavf52.40.0

Video
ID : 1
Format : AVC
Format/Info : Advanced Video Codec
Format profile : High@L3.1
Format settings, CABAC : Yes
Format settings, ReFrames : 3 frames
Codec ID : avc1
Codec ID/Info : Advanced Video Coding
Duration : 2mn 27s
Bit rate mode : Variable
Bit rate : 1 600 Kbps
Nominal bit rate : 1 800 Kbps
Width : 1 280 pixels
Height : 720 pixels
Display aspect ratio : 16:9
Frame rate mode : Variable
Frame rate : 24.000 fps
Original frame rate : 25.000 fps
Minimum frame rate : 12.500 fps
Maximum frame rate : 25.000 fps
Color space : YUV
Chroma subsampling : 4:2:0
Bit depth : 8 bits
Scan type : Progressive
Bits/(Pixel*Frame) : 0.072
Stream size : 28.2 MiB (93%)
Writing library : x264 core 79
Encoding settings : cabac=1 / ref=3 / deblock=1:0:0 / analyse=0x3:0x113 / me=hex / subme=7 / psy=1 / psy_rd=1.0:0.0 / mixed_ref=1 / me_range=16 / chroma_me=1 / trellis=1 / 8x8dct=1 / cqm=0 / deadzone=21,11 / chroma_qp_offset=-2 / threads=24 / nr=0 / decimate=1 / mbaff=0 / constrained_intra=0 / bframes=3 / b_pyramid=0 / b_adapt=1 / b_bias=0 / direct=1 / wpredb=32 / wpredp=2 / keyint=250 / keyint_min=25 / scenecut=40 / rc_lookahead=40 / rc=abr / mbtree=1 / bitrate=1800 / ratetol=2.2 / qcomp=0.60 / qpmin=10 / qpmax=51 / qpstep=4 / ip_ratio=1.41 / aq=1:1.00

Audio
ID : 2
Format : AAC
Format/Info : Advanced Audio Codec
Format profile : LC
Codec ID : 40
Duration : 2mn 27s
Bit rate mode : Variable
Bit rate : 115 Kbps
Channel(s) : 2 channels
Channel positions : Front: L R
Sampling rate : 44.1 KHz
Compression mode : Lossy
Stream size : 2.03 MiB (7%)


Трекер:  [ 16-Дек-2011 21:46 ]

  

Скачать .torrent

Размер .torrent файла 10 KB


Размер: 30 MB
Хэш (hash) релиза: 70ce595457207d7903ee494936f923d62e804da6

bot

Топик был перенесен в форум Reggae, Ska, Dub (video)

Перенес Ronaldo C

Хотите добавить комментарий к записи скачать торрент The Aggrolites - Complicated Girl

!Обратная связь