Скачать через торрент музыку Мэри Поппинс Mary Poppins бесплатно без регистрации torrent

Если у вас наблюдаются проблемы со скриншотами, переходом по ссылками, скачиванием торрентов - проблемы в блокировщике рекламы AdBlock. #хорошегоДня!


Статистика раздачи
Размер:  1008 MB   |    Зарегистрирован:  5 лет 10 месяцев   |    .torrent скачан:  27 раз   |   
Раздают:  1  
   
Загрузка...
 
Автор Сообщение

Galfimbul

avatar Galfimbul


Мэри Поппинс | Mary Poppins

Жанр: Score
Композитор: Richard M. Sherman & Robert B. Sherman
Год выпуска диска: 2004
Год выпуска фильма: 1964
Страна-производитель диска: USA
Издатель (лейбл): Walt Disney Records
Номер по каталогу: 61202-7
Аудиокодек: FLAC (*.flac)
Тип рипа: tracks+.cue
Битрейт аудио: lossless
Disc 1 - Score. Продолжительность: 01:19:48
Disc 2 - Bonus material. Продолжительность: 01:14:43
Общая продолжительность: 02:34:18
Источник: собственный рип
Наличие сканов в содержимом раздачи: Да, 600 dpi. Буклет (в отдельной папке) весит 314 мб!
 
Disc 1 - Score

1. Buena Vista Fanfare (00:08)2. Overture (02:58)3. One Man Band (00:56)4. Sister Suffragette (01:43)5. The Life I Lead (02:00)6. The Perfect Nanny (01:38)7. Air Mail • Admiral Boom • The Not-So-Perfect Nannies • Mary Poppins Arrives (03:06)8. A Spoonful of Sugar (04:07)9. Pavement Artist (02:06)10. Jolly Holiday (05:22)11. Jolly Holiday (Reprise) (01:05)12. Penguin Dance (02:20)13. The Carousel Horses (04:17)14. Supercailfragilisticexpialidocious (02:00)15. Pavement Artist (Reprise) (01:01)16. Stay Awake (01:43)17. Trouble at Uncle Albert’s (01:41)18. I Love to Laugh (02:42)19. A British Bank (The Life I Lead) (02:06)20. Feed the Birds (Tuppence a Bag) (03:49)21. Father’s Footsteps (01:17)22. Fidelity Fiduciary Bank (03:31)23. Panic at the Bank (02:12)24. Chim Chim Cher-ee • March Over the Rooftops (06:19)25. Step In Time (08:41)26. A Man Has Dreams (The Life I Lead / A Spoonful of Sugar) (04:27)27. Mr. Banks Is Discharged (04:46)28. Let’s Go Fly a Kite (01:48)Total time : 01:19:48

Disc 2 - Bonus Material

1. Cherry Tree Lane (00:22)The Mary Poppins Story Meeting Excerpts2. Mr. Banks Decided to Hire a Nanny Himself (00:28)The Mary Poppins Story Meeting Excerpts3. The Children Write Their Own Advertisement (01:02)The Mary Poppins Story Meeting Excerpts4. The Line of Applicants and Mary Poppins Arrives (01:44)The Mary Poppins Story Meeting Excerpts5. Notes on Mary Meeting the Banks (00:38)The Mary Poppins Story Meeting Excerpts6. Up to the Nursery (02:43)The Mary Poppins Story Meeting Excerpts7. Bert and the Talking Pictures (03:45)The Mary Poppins Story Meeting Excerpts8. A Carousel Horse Ride to the Seashore (01:17)The Mary Poppins Story Meeting Excerpts9. The Return Home (01:51)The Mary Poppins Story Meeting Excerpts10. The Next Morning We Meet the Sweep (02:07)The Mary Poppins Story Meeting Excerpts11. Uncle Albert’s (01:25)The Mary Poppins Story Meeting Excerpts12. A Change in the Wind and an Adventure with Admiral Boom (02:19)The Mary Poppins Story Meeting Excerpts13. The Bird Woman (02:01)The Mary Poppins Story Meeting Excerpts14. Mr. Banks and the Compass (02:58)The Mary Poppins Story Meeting Excerpts15. The Compass Sequence: Timbuktu (03:32)The Mary Poppins Story Meeting Excerpts16. The Compass Sequence: The Land of Sand (02:05)The Mary Poppins Story Meeting Excerpts17. The Compass Sequence: Tea In China (01:29)The Mary Poppins Story Meeting Excerpts18. The Compass Sequence: The North Pole (02:01)The Mary Poppins Story Meeting Excerpts19. The Return Home (03:08)The Mary Poppins Story Meeting Excerpts20. Everyone Descends on Cherry Tree Lane (01:57)The Mary Poppins Story Meeting Excerpts21. Mary Departs (02:06)The Mary Poppins Story Meeting Excerpts22. Hollywood Spotlight Microphone (17:27)23. The Sherman Brothers Reminisce About Their Work On Mary Poppins (16:04)Total Time: 01:14:43
 
Exact Audio Copy V1.0 beta 3 from 29. August 2011

EAC extraction logfile from 10. December 2011, 13:25

Richard & Robert Sherman / Mary Poppins (Special Edition) - Disc 01

Used drive : PLEXTOR DVDR PX-L890SA Adapter: 1 ID: 1

Read mode : SecureUtilize accurate stream : YesDefeat audio cache : YesMake use of C2 pointers : No

Read offset correction : 6Overread into Lead-In and Lead-Out : NoFill up missing offset samples with silence : YesDelete leading and trailing silent blocks : NoNull samples used in CRC calculations : YesUsed interface : Installed external ASPI interfaceGap handling : Appended to previous track

Used output format : User Defined EncoderSelected bitrate : 1024 kBit/sQuality : HighAdd ID3 tag : NoCommand line compressor : C:\Program Files\Exact Audio Copy\Flac\flac.exeAdditional command line options : -V -8 -T "Genre=%genre%" -T "Artist=%artist%" -T "Title=%title%" -T "Album=%albumtitle%" -T "Date=%year%" -T "Tracknumber=%tracknr%" -T "Comment=%comment%" %source%

TOC of the extracted CD

Track | Start | Length | Start sector | End sector --------------------------------------------------------- 1 | 0:00.00 | 0:07.54 | 0 | 578 2 | 0:07.54 | 2:57.49 | 579 | 13902 3 | 3:05.28 | 0:56.02 | 13903 | 18104 4 | 4:01.30 | 1:42.48 | 18105 | 25802 5 | 5:44.03 | 1:59.71 | 25803 | 34798 6 | 7:43.74 | 1:37.14 | 34799 | 42087 7 | 9:21.13 | 3:06.64 | 42088 | 56101 8 | 12:28.02 | 4:06.26 | 56102 | 74577 9 | 16:34.28 | 1:52.60 | 74578 | 83037 10 | 18:27.13 | 5:35.17 | 83038 | 108179 11 | 24:02.30 | 1:10.74 | 108180 | 113503 12 | 25:13.29 | 2:19.42 | 113504 | 123970 13 | 27:32.71 | 4:16.67 | 123971 | 143237 14 | 31:49.63 | 2:00.26 | 143238 | 152263 15 | 33:50.14 | 1:01.20 | 152264 | 156858 16 | 34:51.34 | 1:42.34 | 156859 | 164542 17 | 36:33.68 | 1:39.71 | 164543 | 172038 18 | 38:13.64 | 2:42.09 | 172039 | 184197 19 | 40:55.73 | 2:06.38 | 184198 | 193685 20 | 43:02.36 | 3:48.60 | 193686 | 210845 21 | 46:51.21 | 1:16.45 | 210846 | 216590 22 | 48:07.66 | 3:30.29 | 216591 | 232369 23 | 51:38.20 | 3:21.19 | 232370 | 247463 24 | 54:59.39 | 5:11.05 | 247464 | 270793 25 | 60:10.44 | 8:41.63 | 270794 | 309931 26 | 68:52.32 | 4:26.58 | 309932 | 329939 27 | 73:19.15 | 4:44.42 | 329940 | 351281 28 | 78:03.57 | 1:48.43 | 351282 | 359424

Track 1

Filename F:\torrent\Mary Poppins_Special Edition_2CD\CD1\01 Buena Vista Fanfare.wav

Pre-gap length 0:00:02.00

Peak level 29.1 % Extraction speed 1.0 X Track quality 100.0 % Test CRC 36C3880F Copy CRC 36C3880F Accurately ripped (confidence 12) [F281ECC6] (AR v1) Copy OK

Track 2

Filename F:\torrent\Mary Poppins_Special Edition_2CD\CD1\02 Overture.wav

Peak level 85.1 % Extraction speed 5.3 X Track quality 100.0 % Test CRC 239E0C8A Copy CRC 239E0C8A Accurately ripped (confidence 12) [981CD1B2] (AR v1) Copy OK

Track 3

Filename F:\torrent\Mary Poppins_Special Edition_2CD\CD1\03 One Man Band.wav

Peak level 83.1 % Extraction speed 3.9 X Track quality 100.0 % Test CRC AE5F798E Copy CRC AE5F798E Accurately ripped (confidence 11) [FFE97F06] (AR v1) Copy OK

Track 4

Filename F:\torrent\Mary Poppins_Special Edition_2CD\CD1\04 Sister Suffragette.wav

Peak level 84.2 % Extraction speed 5.1 X Track quality 100.0 % Test CRC 4C36AAAA Copy CRC 4C36AAAA Accurately ripped (confidence 12) [DDBA26A8] (AR v1) Copy OK

Track 5

Filename F:\torrent\Mary Poppins_Special Edition_2CD\CD1\05 The Life I Lead.wav

Peak level 52.7 % Extraction speed 5.4 X Track quality 100.0 % Test CRC EBE8A261 Copy CRC EBE8A261 Accurately ripped (confidence 12) [EF5FB7B8] (AR v1) Copy OK

Track 6

Filename F:\torrent\Mary Poppins_Special Edition_2CD\CD1\06 The Perfect Nanny.wav

Peak level 18.9 % Extraction speed 5.3 X Track quality 100.0 % Test CRC C20BB9E2 Copy CRC C20BB9E2 Accurately ripped (confidence 11) [7CB6A1F3] (AR v1) Copy OK

Track 7

Filename F:\torrent\Mary Poppins_Special Edition_2CD\CD1\07 Medley....wav

Peak level 63.6 % Extraction speed 6.4 X Track quality 100.0 % Test CRC 6231146D Copy CRC 6231146D Accurately ripped (confidence 11) [A1EF8810] (AR v1) Copy OK

Track 8

Filename F:\torrent\Mary Poppins_Special Edition_2CD\CD1\08 A Spoonful Of Sugar.wav

Peak level 60.9 % Extraction speed 6.2 X Track quality 99.9 % Test CRC DB53F846 Copy CRC DB53F846 Accurately ripped (confidence 11) [455D2014] (AR v1) Copy OK

Track 9

Filename F:\torrent\Mary Poppins_Special Edition_2CD\CD1\09 Pavement Artist.wav

Peak level 50.3 % Extraction speed 6.4 X Track quality 100.0 % Test CRC 36E9E536 Copy CRC 36E9E536 Accurately ripped (confidence 12) [AE0AB840] (AR v1) Copy OK

Track 10

Filename F:\torrent\Mary Poppins_Special Edition_2CD\CD1\10 Jolly Holiday.wav

Peak level 72.6 % Extraction speed 8.0 X Track quality 100.0 % Test CRC A67D4AAB Copy CRC A67D4AAB Accurately ripped (confidence 11) [36AB9DD4] (AR v1) Copy OK

Track 11

Filename F:\torrent\Mary Poppins_Special Edition_2CD\CD1\11 Jolly Holiday (Reprise).wav

Peak level 60.2 % Extraction speed 6.0 X Track quality 100.0 % Test CRC 593F90BB Copy CRC 593F90BB Accurately ripped (confidence 11) [FEE40962] (AR v1) Copy OK

Track 12

Filename F:\torrent\Mary Poppins_Special Edition_2CD\CD1\12 Penguin Dance.wav

Peak level 60.5 % Extraction speed 7.4 X Track quality 100.0 % Test CRC 82A85778 Copy CRC 82A85778 Accurately ripped (confidence 10) [6AA2BB52] (AR v1) Copy OK

Track 13

Filename F:\torrent\Mary Poppins_Special Edition_2CD\CD1\13 The Carousel Horses.wav

Peak level 53.5 % Extraction speed 8.4 X Track quality 100.0 % Test CRC 75AB3E6A Copy CRC 75AB3E6A Accurately ripped (confidence 10) [A5B33F51] (AR v1) Copy OK

Track 14

Filename F:\torrent\Mary Poppins_Special Edition_2CD\CD1\14 Supercalifragilisticexpialidocious.wav

Peak level 68.2 % Extraction speed 7.6 X Track quality 100.0 % Test CRC ACD94E01 Copy CRC ACD94E01 Accurately ripped (confidence 11) [681D2353] (AR v1) Copy OK

Track 15

Filename F:\torrent\Mary Poppins_Special Edition_2CD\CD1\15 Pavement Artist (Reprise).wav

Peak level 25.8 % Extraction speed 6.2 X Track quality 100.0 % Test CRC CB9DACE6 Copy CRC CB9DACE6 Accurately ripped (confidence 12) [6E4B778F] (AR v1) Copy OK

Track 16

Filename F:\torrent\Mary Poppins_Special Edition_2CD\CD1\16 Stay Awake.wav

Peak level 21.8 % Extraction speed 7.5 X Track quality 100.0 % Test CRC AD918F85 Copy CRC AD918F85 Accurately ripped (confidence 12) [7B018E05] (AR v1) Copy OK

Track 17

Filename F:\torrent\Mary Poppins_Special Edition_2CD\CD1\17 Trouble At Uncle Albert's.wav

Peak level 57.6 % Extraction speed 5.9 X Track quality 99.8 % Test CRC FFFBE862 Copy CRC FFFBE862 Accurately ripped (confidence 11) [E880D7FB] (AR v1) Copy OK

Track 18

Filename F:\torrent\Mary Poppins_Special Edition_2CD\CD1\18 I Love To Laugh.wav

Peak level 37.1 % Extraction speed 8.5 X Track quality 100.0 % Test CRC BB342135 Copy CRC BB342135 Accurately ripped (confidence 11) [F5B4EBD1] (AR v1) Copy OK

Track 19

Filename F:\torrent\Mary Poppins_Special Edition_2CD\CD1\19 A British Bank (The Life I Lead).wav

Peak level 55.9 % Extraction speed 6.7 X Track quality 99.9 % Test CRC BB4815BD Copy CRC BB4815BD Accurately ripped (confidence 12) [DFEB04C1] (AR v1) Copy OK

Track 20

Filename F:\torrent\Mary Poppins_Special Edition_2CD\CD1\20 Feed The Birds (Tuppence A Bag).wav

Peak level 39.2 % Extraction speed 9.4 X Track quality 100.0 % Test CRC 93D18D54 Copy CRC 93D18D54 Accurately ripped (confidence 11) [469A992F] (AR v1) Copy OK

Track 21

Filename F:\torrent\Mary Poppins_Special Edition_2CD\CD1\21 Father's Footsteps.wav

Peak level 47.4 % Extraction speed 7.4 X Track quality 100.0 % Test CRC 05602612 Copy CRC 05602612 Accurately ripped (confidence 11) [AE097AC8] (AR v1) Copy OK

Track 22

Filename F:\torrent\Mary Poppins_Special Edition_2CD\CD1\22 Fidelity Fiduciary Bank.wav

Peak level 91.6 % Extraction speed 9.6 X Track quality 100.0 % Test CRC 24207E87 Copy CRC 24207E87 Accurately ripped (confidence 11) [163C5F66] (AR v1) Copy OK

Track 23

Filename F:\torrent\Mary Poppins_Special Edition_2CD\CD1\23 Panic At The Bank.wav

Peak level 58.8 % Extraction speed 9.9 X Track quality 100.0 % Test CRC C70B2307 Copy CRC C70B2307 Accurately ripped (confidence 11) [FCC2E574] (AR v1) Copy OK

Track 24

Filename F:\torrent\Mary Poppins_Special Edition_2CD\CD1\24 Chim Chim Cher-Ee,March Over The Rooftops.wav

Peak level 59.0 % Extraction speed 9.6 X Track quality 99.9 % Test CRC 3B467C80 Copy CRC 3B467C80 Accurately ripped (confidence 12) [9C2E3D87] (AR v1) Copy OK

Track 25

Filename F:\torrent\Mary Poppins_Special Edition_2CD\CD1\25 Step In Time.wav

Peak level 75.0 % Extraction speed 11.6 X Track quality 100.0 % Test CRC 6D9B342F Copy CRC 6D9B342F Accurately ripped (confidence 11) [5A818C07] (AR v1) Copy OK

Track 26

Filename F:\torrent\Mary Poppins_Special Edition_2CD\CD1\26 A Man Has Dreams (The Life I Lead,A Spoonful Of Sugar).wav

Peak level 53.0 % Extraction speed 11.2 X Track quality 100.0 % Test CRC 6D999483 Copy CRC 6D999483 Accurately ripped (confidence 11) [0244C7C6] (AR v1) Copy OK

Track 27

Filename F:\torrent\Mary Poppins_Special Edition_2CD\CD1\27 Mr. Banks Is Discharged.wav

Peak level 46.2 % Extraction speed 11.6 X Track quality 100.0 % Test CRC B7BE4A11 Copy CRC B7BE4A11 Accurately ripped (confidence 11) [DC967C98] (AR v1) Copy OK

Track 28

Filename F:\torrent\Mary Poppins_Special Edition_2CD\CD1\28 Let's Go Fly A Kite.wav

Peak level 62.2 % Extraction speed 7.7 X Track quality 99.9 % Test CRC F34CA0A9 Copy CRC F34CA0A9 Accurately ripped (confidence 11) [77D2D596] (AR v1) Copy OK

All tracks accurately ripped

No errors occurred

End of status report

==== Log checksum A550F56AEAC246E193D3348063D694E18BFFA0295B1C851B6B17B059DBBF931F ====
 
Exact Audio Copy V1.0 beta 3 from 29. August 2011

EAC extraction logfile from 10. December 2011, 14:17

Various / Mary Poppins (Special Edition - Bonus Material) - Disc 02

Used drive : PLEXTOR DVDR PX-L890SA Adapter: 1 ID: 1

Read mode : SecureUtilize accurate stream : YesDefeat audio cache : YesMake use of C2 pointers : No

Read offset correction : 6Overread into Lead-In and Lead-Out : NoFill up missing offset samples with silence : YesDelete leading and trailing silent blocks : NoNull samples used in CRC calculations : YesUsed interface : Installed external ASPI interfaceGap handling : Appended to previous track

Used output format : User Defined EncoderSelected bitrate : 1024 kBit/sQuality : HighAdd ID3 tag : NoCommand line compressor : C:\Program Files\Exact Audio Copy\Flac\flac.exeAdditional command line options : -V -8 -T "Genre=%genre%" -T "Artist=%artist%" -T "Title=%title%" -T "Album=%albumtitle%" -T "Date=%year%" -T "Tracknumber=%tracknr%" -T "Comment=%comment%" %source%

TOC of the extracted CD

Track | Start | Length | Start sector | End sector --------------------------------------------------------- 1 | 0:00.00 | 0:22.70 | 0 | 1719 2 | 0:22.70 | 0:28.59 | 1720 | 3878 3 | 0:51.54 | 1:02.25 | 3879 | 8553 4 | 1:54.04 | 1:44.58 | 8554 | 16411 5 | 3:38.62 | 0:38.63 | 16412 | 19324 6 | 4:17.50 | 2:43.48 | 19325 | 31597 7 | 7:01.23 | 3:45.40 | 31598 | 48512 8 | 10:46.63 | 1:17.45 | 48513 | 54332 9 | 12:04.33 | 1:51.34 | 54333 | 62691 10 | 13:55.67 | 2:07.63 | 62692 | 72279 11 | 16:03.55 | 1:25.35 | 72280 | 78689 12 | 17:29.15 | 2:19.26 | 78690 | 89140 13 | 19:48.41 | 2:01.17 | 89141 | 98232 14 | 21:49.58 | 2:58.19 | 98233 | 111601 15 | 24:48.02 | 3:32.32 | 111602 | 127533 16 | 28:20.34 | 2:05.01 | 127534 | 136909 17 | 30:25.35 | 1:29.35 | 136910 | 143619 18 | 31:54.70 | 2:01.16 | 143620 | 152710 19 | 33:56.11 | 3:08.32 | 152711 | 166842 20 | 37:04.43 | 1:57.01 | 166843 | 175618 21 | 39:01.44 | 2:06.71 | 175619 | 185139 22 | 41:08.40 | 17:27.59 | 185140 | 263723 23 | 58:36.24 | 16:07.38 | 263724 | 336286 24 | 77:15.62 | 1:13.36 | 347687 | 353197

Track 1

Filename F:\torrent\Mary Poppins_Special Edition_2CD\CD2\01 Cherry Tree Lane.wav

Pre-gap length 0:00:02.00

Peak level 73.5 % Extraction speed 2.2 X Track quality 100.0 % Test CRC E25CE87C Copy CRC E25CE87C Accurately ripped (confidence 1) [23EA52DE] (AR v1) Copy OK

Track 2

Filename F:\torrent\Mary Poppins_Special Edition_2CD\CD2\02 Mr. Banks Decided to Hire a Nanny Himself.wav

Peak level 72.0 % Extraction speed 2.6 X Track quality 100.0 % Test CRC 0A79F0E1 Copy CRC 0A79F0E1 Accurately ripped (confidence 1) [D8E0B214] (AR v1) Copy OK

Track 3

Filename F:\torrent\Mary Poppins_Special Edition_2CD\CD2\03 The Children Write Their Own Advertisement.wav

Peak level 78.9 % Extraction speed 3.9 X Track quality 100.0 % Test CRC B67E274B Copy CRC B67E274B Accurately ripped (confidence 1) [0A8D005B] (AR v1) Copy OK

Track 4

Filename F:\torrent\Mary Poppins_Special Edition_2CD\CD2\04 The Line of Applicants and Mary Poppins Arrives.wav

Peak level 77.0 % Extraction speed 4.8 X Track quality 100.0 % Test CRC 63DD85EE Copy CRC 63DD85EE Accurately ripped (confidence 1) [EC78C115] (AR v1) Copy OK

Track 5

Filename F:\torrent\Mary Poppins_Special Edition_2CD\CD2\05 Notes on Mary Meeting the Banks.wav

Peak level 66.2 % Extraction speed 2.3 X Track quality 99.7 % Test CRC DEB00E57 Copy CRC DEB00E57 Accurately ripped (confidence 1) [21CC3EA6] (AR v1) Copy OK

Track 6

Filename F:\torrent\Mary Poppins_Special Edition_2CD\CD2\06 Up to the Nursery.wav

Peak level 79.6 % Extraction speed 4.8 X Track quality 99.9 % Test CRC 83F0A3CF Copy CRC 83F0A3CF Accurately ripped (confidence 1) [F0439652] (AR v1) Copy OK

Track 7

Filename F:\torrent\Mary Poppins_Special Edition_2CD\CD2\07 Bert and the Talking Pictures.wav

Peak level 78.2 % Extraction speed 6.4 X Track quality 100.0 % Test CRC 79AF0F28 Copy CRC 79AF0F28 Accurately ripped (confidence 1) [5453FDA1] (AR v1) Copy OK

Track 8

Filename F:\torrent\Mary Poppins_Special Edition_2CD\CD2\08 A Carousel Ride to the Seashore.wav

Peak level 51.0 % Extraction speed 5.1 X Track quality 100.0 % Test CRC B7575692 Copy CRC B7575692 Accurately ripped (confidence 1) [50D5A01E] (AR v1) Copy OK

Track 9

Filename F:\torrent\Mary Poppins_Special Edition_2CD\CD2\09 The Return Home.wav

Peak level 53.8 % Extraction speed 5.9 X Track quality 100.0 % Test CRC 14122E35 Copy CRC 14122E35 Accurately ripped (confidence 1) [855C3159] (AR v1) Copy OK

Track 10

Filename F:\torrent\Mary Poppins_Special Edition_2CD\CD2\10 The Next Morning We Meet the Sweep.wav

Peak level 53.0 % Extraction speed 6.1 X Track quality 100.0 % Test CRC CF7DA7F0 Copy CRC CF7DA7F0 Accurately ripped (confidence 1) [945ACB24] (AR v1) Copy OK

Track 11

Filename F:\torrent\Mary Poppins_Special Edition_2CD\CD2\11 Uncle Albert's.wav

Peak level 55.0 % Extraction speed 5.7 X Track quality 100.0 % Test CRC 1FD68F95 Copy CRC 1FD68F95 Accurately ripped (confidence 1) [C344238D] (AR v1) Copy OK

Track 12

Filename F:\torrent\Mary Poppins_Special Edition_2CD\CD2\12 A Change in the Wind and an Adveture With Admiral Boom.wav

Peak level 54.0 % Extraction speed 6.7 X Track quality 100.0 % Test CRC B8509B0B Copy CRC B8509B0B Accurately ripped (confidence 1) [78BA6276] (AR v1) Copy OK

Track 13

Filename F:\torrent\Mary Poppins_Special Edition_2CD\CD2\13 The Bird Woman.wav

Peak level 53.2 % Extraction speed 6.6 X Track quality 100.0 % Test CRC 94F8E526 Copy CRC 94F8E526 Accurately ripped (confidence 1) [4002FE4D] (AR v1) Copy OK

Track 14

Filename F:\torrent\Mary Poppins_Special Edition_2CD\CD2\14 Mr. Banks and the Compass.wav

Peak level 55.6 % Extraction speed 6.3 X Track quality 99.9 % Test CRC 3B3DB326 Copy CRC 3B3DB326 Accurately ripped (confidence 1) [6B9113D3] (AR v1) Copy OK

Track 15

Filename F:\torrent\Mary Poppins_Special Edition_2CD\CD2\15 The Compass Sequence- Timbuktu.wav

Peak level 56.3 % Extraction speed 7.9 X Track quality 100.0 % Test CRC 450B0022 Copy CRC 450B0022 Accurately ripped (confidence 1) [A1FB5C0B] (AR v1) Copy OK

Track 16

Filename F:\torrent\Mary Poppins_Special Edition_2CD\CD2\16 The Compass Sequence- The Land of Sand.wav

Peak level 51.3 % Extraction speed 7.4 X Track quality 100.0 % Test CRC 7BB1F6FC Copy CRC 7BB1F6FC Accurately ripped (confidence 1) [D8E20B40] (AR v1) Copy OK

Track 17

Filename F:\torrent\Mary Poppins_Special Edition_2CD\CD2\17 The Compass Sequence- Tea in China.wav

Peak level 55.5 % Extraction speed 6.8 X Track quality 100.0 % Test CRC 9FE26302 Copy CRC 9FE26302 Accurately ripped (confidence 1) [DDEC0FCC] (AR v1) Copy OK

Track 18

Filename F:\torrent\Mary Poppins_Special Edition_2CD\CD2\18 The Compass Sequence- The North Pole.wav

Peak level 44.7 % Extraction speed 7.5 X Track quality 100.0 % Test CRC AB2F9AF6 Copy CRC AB2F9AF6 Accurately ripped (confidence 1) [1860BE97] (AR v1) Copy OK

Track 19

Filename F:\torrent\Mary Poppins_Special Edition_2CD\CD2\19 The Return Home.wav

Peak level 54.4 % Extraction speed 8.4 X Track quality 100.0 % Test CRC E8FC14BC Copy CRC E8FC14BC Accurately ripped (confidence 1) [13F3150C] (AR v1) Copy OK

Track 20

Filename F:\torrent\Mary Poppins_Special Edition_2CD\CD2\20 Everyone Descends on Cherry Tree Lane.wav

Peak level 59.6 % Extraction speed 7.7 X Track quality 100.0 % Test CRC 5EA3027C Copy CRC 5EA3027C Accurately ripped (confidence 1) [FEAC4871] (AR v1) Copy OK

Track 21

Filename F:\torrent\Mary Poppins_Special Edition_2CD\CD2\21 Mary Departs.wav

Peak level 56.4 % Extraction speed 8.0 X Track quality 100.0 % Test CRC 9785810A Copy CRC 9785810A Accurately ripped (confidence 1) [B62798F2] (AR v1) Copy OK

Track 22

Filename F:\torrent\Mary Poppins_Special Edition_2CD\CD2\22 Hollywood Spotlight Microphone.wav

Pre-gap length 0:00:02.71

Peak level 48.3 % Extraction speed 10.5 X Track quality 99.9 % Test CRC 33115A21 Copy CRC 33115A21 Accurately ripped (confidence 1) [0A0A946B] (AR v1) Copy OK

Track 23

Filename F:\torrent\Mary Poppins_Special Edition_2CD\CD2\23 The Sherman Brothers Reminisce About Thier Work on Mary Poppins.wav

Pre-gap length 0:00:03.00

Peak level 99.9 % Extraction speed 11.9 X Track quality 100.0 % Test CRC E7A86DA3 Copy CRC E7A86DA3 Accurately ripped (confidence 1) [F13E18BC] (AR v1) Copy OK

All tracks accurately ripped

No errors occurred

End of status report

==== Log checksum 53F58BF4907EC4478704D2720D14E89794D9D679133B863D55849926A8E7225C ====
 
REM GENRE SoundtrackREM DATE 2004REM DISCID 7C12B81CREM COMMENT "ExactAudioCopy v1.0b3"CATALOG 0005008612027PERFORMER "Richard & Robert Sherman"TITLE "Mary Poppins (Special Edition) - Disc 01"FILE "01 Buena Vista Fanfare.wav" WAVE TRACK 01 AUDIO TITLE "Buena Vista Fanfare" PERFORMER "Richard & Robert Sherman" ISRC USWD10423993 FLAGS DCP INDEX 01 00:00:00FILE "02 Overture.wav" WAVE TRACK 02 AUDIO TITLE "Overture" PERFORMER "Richard & Robert Sherman" ISRC USWD10423157 FLAGS DCP INDEX 01 00:00:00FILE "03 One Man Band.wav" WAVE TRACK 03 AUDIO TITLE "One Man Band" PERFORMER "Richard & Robert Sherman" ISRC USWD10423994 FLAGS DCP INDEX 01 00:00:00FILE "04 Sister Suffragette.wav" WAVE TRACK 04 AUDIO TITLE "Sister Suffragette" PERFORMER "Richard & Robert Sherman" ISRC USWD10423160 FLAGS DCP INDEX 01 00:00:00FILE "05 The Life I Lead.wav" WAVE TRACK 05 AUDIO TITLE "The Life I Lead" PERFORMER "Richard & Robert Sherman" ISRC USWD10423155 FLAGS DCP INDEX 01 00:00:00FILE "06 The Perfect Nanny.wav" WAVE TRACK 06 AUDIO TITLE "The Perfect Nanny" PERFORMER "Richard & Robert Sherman" ISRC USWD10423159 FLAGS DCP INDEX 01 00:00:00FILE "07 Medley....wav" WAVE TRACK 07 AUDIO TITLE "Medley..." PERFORMER "Richard & Robert Sherman" ISRC USWD10423995 FLAGS DCP INDEX 01 00:00:00FILE "08 A Spoonful Of Sugar.wav" WAVE TRACK 08 AUDIO TITLE "A Spoonful Of Sugar" PERFORMER "Richard & Robert Sherman" ISRC USWD10220406 FLAGS DCP INDEX 01 00:00:00FILE "09 Pavement Artist.wav" WAVE TRACK 09 AUDIO TITLE "Pavement Artist" PERFORMER "Richard & Robert Sherman" ISRC USWD10423996 FLAGS DCP INDEX 01 00:00:00FILE "10 Jolly Holiday.wav" WAVE TRACK 10 AUDIO TITLE "Jolly Holiday" PERFORMER "Richard & Robert Sherman" ISRC USWD10423997 FLAGS DCP INDEX 01 00:00:00FILE "11 Jolly Holiday (Reprise).wav" WAVE TRACK 11 AUDIO TITLE "Jolly Holiday (Reprise)" PERFORMER "Richard & Robert Sherman" ISRC USWD10423998 FLAGS DCP INDEX 01 00:00:00FILE "12 Penguin Dance.wav" WAVE TRACK 12 AUDIO TITLE "Penguin Dance" PERFORMER "Richard & Robert Sherman" ISRC USWD10423999 FLAGS DCP INDEX 01 00:00:00FILE "13 The Carousel Horses.wav" WAVE TRACK 13 AUDIO TITLE "The Carousel Horses" PERFORMER "Richard & Robert Sherman" ISRC USWD10424000 FLAGS DCP INDEX 01 00:00:00FILE "14 Supercalifragilisticexpialidocious.wav" WAVE TRACK 14 AUDIO TITLE "Supercalifragilisticexpialidocious" PERFORMER "Richard & Robert Sherman" ISRC USWD10320942 FLAGS DCP INDEX 01 00:00:00FILE "15 Pavement Artist (Reprise).wav" WAVE TRACK 15 AUDIO TITLE "Pavement Artist (Reprise)" PERFORMER "Richard & Robert Sherman" ISRC USWD10424001 FLAGS DCP INDEX 01 00:00:00FILE "16 Stay Awake.wav" WAVE TRACK 16 AUDIO TITLE "Stay Awake" PERFORMER "Richard & Robert Sherman" ISRC USWD10423161 FLAGS DCP INDEX 01 00:00:00FILE "17 Trouble At Uncle Albert's.wav" WAVE TRACK 17 AUDIO TITLE "Trouble At Uncle Albert's" PERFORMER "Richard & Robert Sherman" ISRC USWD10424002 FLAGS DCP INDEX 01 00:00:00FILE "18 I Love To Laugh.wav" WAVE TRACK 18 AUDIO TITLE "I Love To Laugh" PERFORMER "Richard & Robert Sherman" ISRC USWD10423152 FLAGS DCP INDEX 01 00:00:00FILE "19 A British Bank (The Life I Lead).wav" WAVE TRACK 19 AUDIO TITLE "A British Bank (The Life I Lead)" PERFORMER "Richard & Robert Sherman" ISRC USWD10423150 FLAGS DCP INDEX 01 00:00:00FILE "20 Feed The Birds (Tuppence A Bag).wav" WAVE TRACK 20 AUDIO TITLE "Feed The Birds (Tuppence A Bag)" PERFORMER "Richard & Robert Sherman" ISRC USWD10220439 FLAGS DCP INDEX 01 00:00:00FILE "21 Father's Footsteps.wav" WAVE TRACK 21 AUDIO TITLE "Father's Footsteps" PERFORMER "Richard & Robert Sherman" ISRC USWD10424003 FLAGS DCP INDEX 01 00:00:00FILE "22 Fidelity Fiduciary Bank.wav" WAVE TRACK 22 AUDIO TITLE "Fidelity Fiduciary Bank" PERFORMER "Richard & Robert Sherman" ISRC USWD10423151 FLAGS DCP INDEX 01 00:00:00FILE "23 Panic At The Bank.wav" WAVE TRACK 23 AUDIO TITLE "Panic At The Bank" PERFORMER "Richard & Robert Sherman" ISRC USWD10424004 FLAGS DCP INDEX 01 00:00:00FILE "24 Chim Chim Cher-Ee,March Over The Rooftops.wav" WAVE TRACK 24 AUDIO TITLE "Chim Chim Cher-Ee/March Over The Rooftops" PERFORMER "Richard & Robert Sherman" ISRC USWD10424005 FLAGS DCP INDEX 01 00:00:00FILE "25 Step In Time.wav" WAVE TRACK 25 AUDIO TITLE "Step In Time" PERFORMER "Richard & Robert Sherman" ISRC USWD10423162 FLAGS DCP INDEX 01 00:00:00FILE "26 A Man Has Dreams (The Life I Lead,A Spoonful Of Sugar).wav" WAVE TRACK 26 AUDIO TITLE "A Man Has Dreams (The Life I Lead/A Spoonful Of Sugar)" PERFORMER "Richard & Robert Sherman" ISRC USWD10423156 FLAGS DCP INDEX 01 00:00:00FILE "27 Mr. Banks Is Discharged.wav" WAVE TRACK 27 AUDIO TITLE "Mr. Banks Is Discharged" PERFORMER "Richard & Robert Sherman" ISRC USWD10424006 FLAGS DCP INDEX 01 00:00:00FILE "28 Let's Go Fly A Kite.wav" WAVE TRACK 28 AUDIO TITLE "Let's Go Fly A Kite" PERFORMER "Richard & Robert Sherman" ISRC USWD10423154 FLAGS DCP INDEX 01 00:00:00
 
REM GENRE SoundtrackREM DATE 2004REM DISCID 27126518REM COMMENT "ExactAudioCopy v1.0b3"CATALOG 0005008612027PERFORMER "Various"TITLE "Mary Poppins (Special Edition - Bonus Material) - Disc 02"FILE "01 Cherry Tree Lane.wav" WAVE TRACK 01 AUDIO TITLE "Cherry Tree Lane" PERFORMER "The Mary Poppins Story Meeting Excerpts" ISRC USWD10424007 FLAGS DCP INDEX 01 00:00:00FILE "02 Mr. Banks Decided to Hire a Nanny Himself.wav" WAVE TRACK 02 AUDIO TITLE "Mr. Banks Decided to Hire a Nanny Himself" PERFORMER "The Mary Poppins Story Meeting Excerpts" ISRC USWD10424007 FLAGS DCP INDEX 01 00:00:00FILE "03 The Children Write Their Own Advertisement.wav" WAVE TRACK 03 AUDIO TITLE "The Children Write Their Own Advertisement" PERFORMER "The Mary Poppins Story Meeting Excerpts" ISRC USWD10424007 FLAGS DCP INDEX 01 00:00:00FILE "04 The Line of Applicants and Mary Poppins Arrives.wav" WAVE TRACK 04 AUDIO TITLE "The Line of Applicants and Mary Poppins Arrives" PERFORMER "The Mary Poppins Story Meeting Excerpts" ISRC USWD10424007 FLAGS DCP INDEX 01 00:00:00FILE "05 Notes on Mary Meeting the Banks.wav" WAVE TRACK 05 AUDIO TITLE "Notes on Mary Meeting the Banks" PERFORMER "The Mary Poppins Story Meeting Excerpts" ISRC USWD10424007 FLAGS DCP INDEX 01 00:00:00FILE "06 Up to the Nursery.wav" WAVE TRACK 06 AUDIO TITLE "Up to the Nursery" PERFORMER "The Mary Poppins Story Meeting Excerpts" ISRC USWD10424007 FLAGS DCP INDEX 01 00:00:00FILE "07 Bert and the Talking Pictures.wav" WAVE TRACK 07 AUDIO TITLE "Bert and the Talking Pictures" PERFORMER "The Mary Poppins Story Meeting Excerpts" ISRC USWD10424007 FLAGS DCP INDEX 01 00:00:00FILE "08 A Carousel Ride to the Seashore.wav" WAVE TRACK 08 AUDIO TITLE "A Carousel Ride to the Seashore" PERFORMER "The Mary Poppins Story Meeting Excerpts" ISRC USWD10424007 FLAGS DCP INDEX 01 00:00:00FILE "09 The Return Home.wav" WAVE TRACK 09 AUDIO TITLE "The Return Home" PERFORMER "The Mary Poppins Story Meeting Excerpts" ISRC USWD10424007 FLAGS DCP INDEX 01 00:00:00FILE "10 The Next Morning We Meet the Sweep.wav" WAVE TRACK 10 AUDIO TITLE "The Next Morning We Meet the Sweep" PERFORMER "The Mary Poppins Story Meeting Excerpts" ISRC USWD10424007 FLAGS DCP INDEX 01 00:00:00FILE "11 Uncle Albert's.wav" WAVE TRACK 11 AUDIO TITLE "Uncle Albert's" PERFORMER "The Mary Poppins Story Meeting Excerpts" ISRC USWD10424007 FLAGS DCP INDEX 01 00:00:00FILE "12 A Change in the Wind and an Adveture With Admiral Boom.wav" WAVE TRACK 12 AUDIO TITLE "A Change in the Wind and an Adveture With Admiral Boom" PERFORMER "The Mary Poppins Story Meeting Excerpts" ISRC USWD10424007 FLAGS DCP INDEX 01 00:00:00FILE "13 The Bird Woman.wav" WAVE TRACK 13 AUDIO TITLE "The Bird Woman" PERFORMER "The Mary Poppins Story Meeting Excerpts" ISRC USWD10424007 FLAGS DCP INDEX 01 00:00:00FILE "14 Mr. Banks and the Compass.wav" WAVE TRACK 14 AUDIO TITLE "Mr. Banks and the Compass" PERFORMER "The Mary Poppins Story Meeting Excerpts" ISRC USWD10424007 FLAGS DCP INDEX 01 00:00:00FILE "15 The Compass Sequence- Timbuktu.wav" WAVE TRACK 15 AUDIO TITLE "The Compass Sequence: Timbuktu" PERFORMER "The Mary Poppins Story Meeting Excerpts" ISRC USWD10424007 FLAGS DCP INDEX 01 00:00:00FILE "16 The Compass Sequence- The Land of Sand.wav" WAVE TRACK 16 AUDIO TITLE "The Compass Sequence: The Land of Sand" PERFORMER "The Mary Poppins Story Meeting Excerpts" ISRC USWD10424007 FLAGS DCP INDEX 01 00:00:00FILE "17 The Compass Sequence- Tea in China.wav" WAVE TRACK 17 AUDIO TITLE "The Compass Sequence: Tea in China" PERFORMER "The Mary Poppins Story Meeting Excerpts" ISRC USWD10424007 FLAGS DCP INDEX 01 00:00:00FILE "18 The Compass Sequence- The North Pole.wav" WAVE TRACK 18 AUDIO TITLE "The Compass Sequence: The North Pole" PERFORMER "The Mary Poppins Story Meeting Excerpts" ISRC USWD10424007 FLAGS DCP INDEX 01 00:00:00FILE "19 The Return Home.wav" WAVE TRACK 19 AUDIO TITLE "The Return Home" PERFORMER "The Mary Poppins Story Meeting Excerpts" ISRC USWD10424007 FLAGS DCP INDEX 01 00:00:00FILE "20 Everyone Descends on Cherry Tree Lane.wav" WAVE TRACK 20 AUDIO TITLE "Everyone Descends on Cherry Tree Lane" PERFORMER "The Mary Poppins Story Meeting Excerpts" ISRC USWD10424007 FLAGS DCP INDEX 01 00:00:00FILE "21 Mary Departs.wav" WAVE TRACK 21 AUDIO TITLE "Mary Departs" PERFORMER "The Mary Poppins Story Meeting Excerpts" ISRC USWD10424007 FLAGS DCP INDEX 01 00:00:00 TRACK 22 AUDIO TITLE "Hollywood Spotlight Microphone" PERFORMER "Various" ISRC USWD10424008 FLAGS DCP INDEX 00 02:04:00FILE "22 Hollywood Spotlight Microphone.wav" WAVE INDEX 01 00:00:00 TRACK 23 AUDIO TITLE "The Sherman Brothers Reminisce About Thier Work on Mary Poppins" PERFORMER "Various" ISRC USWD10423186 FLAGS DCP INDEX 00 17:24:59FILE "23 The Sherman Brothers Reminisce About Thier Work on Mary Poppins.wav" WAVE INDEX 01 00:00:00


Трекер:  [ 02-Фев-2012 21:44 ]

  

Скачать .torrent

Размер .torrent файла 25 KB


Размер: 1008 MB
Хэш (hash) релиза: 1572654dfb5af862cea3b3439bb464f225714bd9

Торренты, похожие на Мэри Поппинс Mary Poppins скачать торрент

Форум Название Автор Размер S L Добавлен
Саундтреки к фильмам и мультфильмам (mp3) ·· (Score) Мэри Поппинс / Mary Poppins (The Legacy Collection, 3 CD) (Richard M. and Robert B. Sherman) - 2014 (1964), MP3 (tracks) 320 kbps Galfimbul 497817705475 MB 0 0 1417077176

11:32

27-Ноя-14

bot

Топик был перенесен в форум Саундтреки к фильмам и мультфильмам (lossless)

Перенес Galfimbul

Хотите добавить комментарий к записи скачать торрент Мэри Поппинс Mary Poppins

!Обратная связь