Скачать через торрент музыку Dead Can Dance -Toward The Within- бесплатно без регистрации torrent

Если у вас наблюдаются проблемы со скриншотами, переходом по ссылками, скачиванием торрентов - проблемы в блокировщике рекламы AdBlock. #хорошегоДня!


Статистика раздачи
Размер:  4.36 GB   |    Зарегистрирован:  5 лет 10 месяцев   |    .torrent скачан:  48 раз   |   
Раздают:  1  
   
Загрузка...
 
Автор Сообщение

Galfimbul

avatar Galfimbul


Dead Can Dance -Toward The Within-

Страна: UK
Жанр: Gothic, Folk, Ethnic, Medieval
Продолжительность: 01:39:54
Год выпуска: 1994 г.
Лейбл: 4AD

Описание:
… на концертах мы почти не играем под фонограмму. У нас есть система,
где хранятся центральные структуры песен, она оставляет нам простор для импровизаций.
С ее помощью вы можете создавать иногда ужасающе прекрасные музыкальне моменты…


Важно! Этот диск я взял у своих друзей, по этому, сообщить что-либо о происхождении диска не могу,
все претензии по качеству материала не принимаются!

Треклист:

01. Rakim
02. Song Of The Sibyl
03. I Can See Now
04. American Dreaming
05. Cantara
06. The Wing That Shakes The Barley
07. I Am Stretched On Your Grave
08. Desert Song
09. Oman
10. Gloridean
11. Tristan
12. Sanvean
13. Don't Fade Away

Bonus Videos:

01. The Carnival Is Over
02. The Host Of Seraphim
03. Yulunga
04. Frontier
05. The Protagonist
Группа образована в 1980 году в Великобритании.
Dead Can Dance до середины 90-х были исключительно студийным проектом англичанина Перри и уроженки Австралии Джеррард –
раз в год они собирались в лондонской студии фирмы 4AD и при участии сейшнменов этой независимой экспериментальной
фирмы записывали альбом (в 1984 году Dead Can Dance первыми в истории рока выпустили «сорокапятку» в формате CD).

Готический рок Dead Can Dance коммерческого успеха не имеет, но у группы есть верные поклонники во всем мире,
и потому серия клубных концертов дуэта в США в 1994 году стала событием музыкальной жизни не только Америки,
но и всех любителей экспериментальной музыки. В своих последних работах Перри и Джеррард
используют национальные музыкальные инструменты Турции, австралийских аборигенов, часто включают в альбомы
композиции на латинском и гаэльском языках, вводят в текстуру композиций грегорианские хоры,
а также электронные и сэмплерные эффекты. Необычные ритмические фигуры Dead Can Dance,
способность музыкантов свободно чувствовать себя в самых разных стилистических рамках
(от барокко до фри-джаза) затрудняют точную классификацию группы – проще всего идентифицировать
Dead Can Dance как «готикоэтнический андеграунд».

Toward the Within — единственный официальный концертный альбом группы,
выпущенный на британском лейбле 4AD в октябре 1994 года в форматах CD, LP и VHS.
Он состоит из 15 песен, из которых только четыре можно найти на предыдущих альбомах группы.

Запись была сделана в ноябре 1993 года в театре «Mayfair» в Санта-Монике, Калифорния,
была выпущена как альбом и видеофильм год спустя.
Это было последнее крупное представление,
произошедшее в театре до его разрушения землетрясением в январе 2004 года.
Фильм был снят Марком Мэгидсоном и содержит интервью
с Лизой Джеррард и Бренданом Перри (без перевода).
Разбивка на главы по трекам: есть
Качество : DVD5(сжатый)
Формат: DVD video
Видео кодек: MPEG2
Аудио кодек: AC3
Видео: MPEG-2 Video; 720x480 (4:3); VBR 4594 Kbps; 29,970 fps
Аудио: AC3; 192 Kbps; CBR; 48 kHz; 2 ch
 
GeneralComplete name : E:\torrents\Dead Can Dance -Toward The Within- 1994 (DVD)\VIDEO_TS\VIDEO_TS.BUPFormat : DVD VideoFormat profile : MenuFile size : 18.0 KiBOverall bit rate mode : Variable

VideoID : 224 (0xE0)Format : MPEG VideoFormat version : Version 2Bit rate mode : VariableWidth : 720 pixelsHeight : 480 pixelsDisplay aspect ratio : 4:3Frame rate : 29.970 fpsStandard : NTSCCompression mode : Lossy

TextFormat : RLEFormat/Info : Run-length encodingBit depth : 2 bits

GeneralComplete name : E:\torrents\Dead can Dance -Toward The Within- 1994 (DVD)\VIDEO_TS\VIDEO_TS.IFOFormat : DVD VideoFormat profile : MenuFile size : 18.0 KiBOverall bit rate mode : Variable

VideoID : 224 (0xE0)Format : MPEG VideoFormat version : Version 2Bit rate mode : VariableWidth : 720 pixelsHeight : 480 pixelsDisplay aspect ratio : 4:3Frame rate : 29.970 fpsStandard : NTSCCompression mode : Lossy

TextFormat : RLEFormat/Info : Run-length encodingBit depth : 2 bits

GeneralComplete name : E:\torrents\Dead Can Dance -Toward The Within- 1994 (DVD)\VIDEO_TS\VTS_01_0.BUPFormat : DVD VideoFormat profile : ProgramFile size : 84.0 KiBDuration : 1h 10mnOverall bit rate mode : VariableOverall bit rate : 162 bps

VideoID : 224 (0xE0)Format : MPEG VideoFormat version : Version 2Duration : 1h 10mnBit rate mode : VariableWidth : 720 pixelsHeight : 480 pixelsDisplay aspect ratio : 4:3Frame rate : 29.970 fpsStandard : NTSCCompression mode : Lossy

Audio #1ID : 128 (0x80)Format : AC-3Format/Info : Audio Coding 3Duration : 1h 10mnChannel(s) : 2 channelsSampling rate : 48.0 KHzCompression mode : LossyLanguage : English

Audio #2Format : AC-3Format/Info : Audio Coding 3Duration : 1h 10mnChannel(s) : 6 channelsSampling rate : 48.0 KHzCompression mode : LossyLanguage : English

Audio #3Format : AC-3Format/Info : Audio Coding 3Duration : 1h 10mnChannel(s) : 6 channelsSampling rate : 48.0 KHzCompression mode : LossyLanguage : English

Audio #4Format : AC-3Format/Info : Audio Coding 3Duration : 1h 10mnChannel(s) : 6 channelsSampling rate : 48.0 KHzCompression mode : LossyLanguage : English

Audio #5Format : AC-3Format/Info : Audio Coding 3Duration : 1h 10mnChannel(s) : 6 channelsSampling rate : 48.0 KHzCompression mode : LossyLanguage : English

Audio #6Format : AC-3Format/Info : Audio Coding 3Duration : 1h 10mnChannel(s) : 6 channelsSampling rate : 48.0 KHzCompression mode : LossyLanguage : English

Audio #7Format : AC-3Format/Info : Audio Coding 3Duration : 1h 10mnChannel(s) : 6 channelsSampling rate : 48.0 KHzCompression mode : LossyLanguage : English

Audio #8Format : AC-3Format/Info : Audio Coding 3Duration : 1h 10mnChannel(s) : 6 channelsSampling rate : 48.0 KHzCompression mode : LossyLanguage : English

Text #1Format : RLEFormat/Info : Run-length encodingBit depth : 2 bits

Text #2Format : RLEFormat/Info : Run-length encodingBit depth : 2 bits

Text #3Format : RLEFormat/Info : Run-length encodingBit depth : 2 bits

Text #4Format : RLEFormat/Info : Run-length encodingBit depth : 2 bits

Text #5Format : RLEFormat/Info : Run-length encodingBit depth : 2 bits

Text #6Format : RLEFormat/Info : Run-length encodingBit depth : 2 bits

Text #7Format : RLEFormat/Info : Run-length encodingBit depth : 2 bits

Text #8Format : RLEFormat/Info : Run-length encodingBit depth : 2 bits

Text #9Format : RLEFormat/Info : Run-length encodingBit depth : 2 bits

Text #10Format : RLEFormat/Info : Run-length encodingBit depth : 2 bits

Text #11Format : RLEFormat/Info : Run-length encodingBit depth : 2 bits

Text #12Format : RLEFormat/Info : Run-length encodingBit depth : 2 bits

Text #13Format : RLEFormat/Info : Run-length encodingBit depth : 2 bits

Text #14Format : RLEFormat/Info : Run-length encodingBit depth : 2 bits

Text #15Format : RLEFormat/Info : Run-length encodingBit depth : 2 bits

Text #16Format : RLEFormat/Info : Run-length encodingBit depth : 2 bits

Text #17Format : RLEFormat/Info : Run-length encodingBit depth : 2 bits

Text #18Format : RLEFormat/Info : Run-length encodingBit depth : 2 bits

Text #19Format : RLEFormat/Info : Run-length encodingBit depth : 2 bits

Text #20Format : RLEFormat/Info : Run-length encodingBit depth : 2 bits

Text #21Format : RLEFormat/Info : Run-length encodingBit depth : 2 bits

Text #22Format : RLEFormat/Info : Run-length encodingBit depth : 2 bits

Text #23Format : RLEFormat/Info : Run-length encodingBit depth : 2 bits

Text #24Format : RLEFormat/Info : Run-length encodingBit depth : 2 bits

Text #25Format : RLEFormat/Info : Run-length encodingBit depth : 2 bits

Text #26Format : RLEFormat/Info : Run-length encodingBit depth : 2 bits

Text #27Format : RLEFormat/Info : Run-length encodingBit depth : 2 bits

Text #28Format : RLEFormat/Info : Run-length encodingBit depth : 2 bits

Text #29Format : RLEFormat/Info : Run-length encodingBit depth : 2 bits

Text #30Format : RLEFormat/Info : Run-length encodingBit depth : 2 bits

Text #31Format : RLEFormat/Info : Run-length encodingBit depth : 2 bits

Text #32Format : RLEFormat/Info : Run-length encodingBit depth : 2 bits

Menu #1Duration : 1h 10mn00:00:00.000 : Chapter 100:00:13.500 : Chapter 200:08:05.800 : Chapter 300:13:33.300 : Chapter 400:16:24.800 : Chapter 500:22:37.300 : Chapter 600:29:09.300 : Chapter 700:32:22.800 : Chapter 800:38:19.300 : Chapter 900:43:51.800 : Chapter 1000:50:05.800 : Chapter 1100:56:35.300 : Chapter 1200:58:25.300 : Chapter 1301:02:25.300 : Chapter 1401:08:10.800 : Chapter 15List (Audio) : 0

Menu #2Duration : 1h 10mn00:00:00.000 : Chapter 100:00:13.000 : Chapter 200:00:20.480 : Chapter 300:00:52.480 : Chapter 400:00:54.920 : Chapter 500:01:12.920 : Chapter 600:01:50.920 : Chapter 700:02:06.920 : Chapter 800:02:12.560 : Chapter 900:02:49.560 : Chapter 1000:03:09.560 : Chapter 1100:03:44.560 : Chapter 1200:03:45.960 : Chapter 1300:03:49.960 : Chapter 1400:03:55.160 : Chapter 15List (Audio) : 0

Menu #3

GeneralComplete name : E:\torrents\Dead Can Dance -Toward The Within- 1994 (DVD)\VIDEO_TS\VTS_01_0.IFOFormat : DVD VideoFormat profile : ProgramFile size : 84.0 KiBDuration : 1h 10mnOverall bit rate mode : VariableOverall bit rate : 162 bps

VideoID : 224 (0xE0)Format : MPEG VideoFormat version : Version 2Duration : 1h 10mnBit rate mode : VariableWidth : 720 pixelsHeight : 480 pixelsDisplay aspect ratio : 4:3Frame rate : 29.970 fpsStandard : NTSCCompression mode : Lossy

Audio #1ID : 128 (0x80)Format : AC-3Format/Info : Audio Coding 3Duration : 1h 10mnChannel(s) : 2 channelsSampling rate : 48.0 KHzCompression mode : LossyLanguage : English

Audio #2Format : AC-3Format/Info : Audio Coding 3Duration : 1h 10mnChannel(s) : 6 channelsSampling rate : 48.0 KHzCompression mode : LossyLanguage : English

Audio #3Format : AC-3Format/Info : Audio Coding 3Duration : 1h 10mnChannel(s) : 6 channelsSampling rate : 48.0 KHzCompression mode : LossyLanguage : English

Audio #4Format : AC-3Format/Info : Audio Coding 3Duration : 1h 10mnChannel(s) : 6 channelsSampling rate : 48.0 KHzCompression mode : LossyLanguage : English

Audio #5Format : AC-3Format/Info : Audio Coding 3Duration : 1h 10mnChannel(s) : 6 channelsSampling rate : 48.0 KHzCompression mode : LossyLanguage : English

Audio #6Format : AC-3Format/Info : Audio Coding 3Duration : 1h 10mnChannel(s) : 6 channelsSampling rate : 48.0 KHzCompression mode : LossyLanguage : English

Audio #7Format : AC-3Format/Info : Audio Coding 3Duration : 1h 10mnChannel(s) : 6 channelsSampling rate : 48.0 KHzCompression mode : LossyLanguage : English

Audio #8Format : AC-3Format/Info : Audio Coding 3Duration : 1h 10mnChannel(s) : 6 channelsSampling rate : 48.0 KHzCompression mode : LossyLanguage : English

Text #1Format : RLEFormat/Info : Run-length encodingBit depth : 2 bits

Text #2Format : RLEFormat/Info : Run-length encodingBit depth : 2 bits

Text #3Format : RLEFormat/Info : Run-length encodingBit depth : 2 bits

Text #4Format : RLEFormat/Info : Run-length encodingBit depth : 2 bits

Text #5Format : RLEFormat/Info : Run-length encodingBit depth : 2 bits

Text #6Format : RLEFormat/Info : Run-length encodingBit depth : 2 bits

Text #7Format : RLEFormat/Info : Run-length encodingBit depth : 2 bits

Text #8Format : RLEFormat/Info : Run-length encodingBit depth : 2 bits

Text #9Format : RLEFormat/Info : Run-length encodingBit depth : 2 bits

Text #10Format : RLEFormat/Info : Run-length encodingBit depth : 2 bits

Text #11Format : RLEFormat/Info : Run-length encodingBit depth : 2 bits

Text #12Format : RLEFormat/Info : Run-length encodingBit depth : 2 bits

Text #13Format : RLEFormat/Info : Run-length encodingBit depth : 2 bits

Text #14Format : RLEFormat/Info : Run-length encodingBit depth : 2 bits

Text #15Format : RLEFormat/Info : Run-length encodingBit depth : 2 bits

Text #16Format : RLEFormat/Info : Run-length encodingBit depth : 2 bits

Text #17Format : RLEFormat/Info : Run-length encodingBit depth : 2 bits

Text #18Format : RLEFormat/Info : Run-length encodingBit depth : 2 bits

Text #19Format : RLEFormat/Info : Run-length encodingBit depth : 2 bits

Text #20Format : RLEFormat/Info : Run-length encodingBit depth : 2 bits

Text #21Format : RLEFormat/Info : Run-length encodingBit depth : 2 bits

Text #22Format : RLEFormat/Info : Run-length encodingBit depth : 2 bits

Text #23Format : RLEFormat/Info : Run-length encodingBit depth : 2 bits

Text #24Format : RLEFormat/Info : Run-length encodingBit depth : 2 bits

Text #25Format : RLEFormat/Info : Run-length encodingBit depth : 2 bits

Text #26Format : RLEFormat/Info : Run-length encodingBit depth : 2 bits

Text #27Format : RLEFormat/Info : Run-length encodingBit depth : 2 bits

Text #28Format : RLEFormat/Info : Run-length encodingBit depth : 2 bits

Text #29Format : RLEFormat/Info : Run-length encodingBit depth : 2 bits

Text #30Format : RLEFormat/Info : Run-length encodingBit depth : 2 bits

Text #31Format : RLEFormat/Info : Run-length encodingBit depth : 2 bits

Text #32Format : RLEFormat/Info : Run-length encodingBit depth : 2 bits

Menu #1Duration : 1h 10mn00:00:00.000 : Chapter 100:00:13.500 : Chapter 200:08:05.800 : Chapter 300:13:33.300 : Chapter 400:16:24.800 : Chapter 500:22:37.300 : Chapter 600:29:09.300 : Chapter 700:32:22.800 : Chapter 800:38:19.300 : Chapter 900:43:51.800 : Chapter 1000:50:05.800 : Chapter 1100:56:35.300 : Chapter 1200:58:25.300 : Chapter 1301:02:25.300 : Chapter 1401:08:10.800 : Chapter 15List (Audio) : 0

Menu #2Duration : 1h 10mn00:00:00.000 : Chapter 100:00:13.000 : Chapter 200:00:20.480 : Chapter 300:00:52.480 : Chapter 400:00:54.920 : Chapter 500:01:12.920 : Chapter 600:01:50.920 : Chapter 700:02:06.920 : Chapter 800:02:12.560 : Chapter 900:02:49.560 : Chapter 1000:03:09.560 : Chapter 1100:03:44.560 : Chapter 1200:03:45.960 : Chapter 1300:03:49.960 : Chapter 1400:03:55.160 : Chapter 15List (Audio) : 0

Menu #3

GeneralComplete name : E:\torrents\Dead Can Dance -Toward The Within- 1994 (DVD)\VIDEO_TS\VTS_01_0.VOBFormat : MPEG-PSFile size : 865 MiBDuration : 1mn 5sOverall bit rate mode : VariableOverall bit rate : 110 Mbps

VideoID : 224 (0xE0)Format : MPEG VideoFormat version : Version 2Format profile : Main@MainFormat settings, BVOP : YesFormat settings, Matrix : CustomFormat settings, GOP : M=3, N=15Duration : 1mn 5sBit rate mode : VariableBit rate : 108 MbpsMaximum bit rate : 9 800 KbpsWidth : 720 pixelsHeight : 480 pixelsDisplay aspect ratio : 4:3Frame rate : 29.970 fpsStandard : NTSCColor space : YUVChroma subsampling : 4:2:0Bit depth : 8 bitsScan type : InterlacedScan order : Top Field FirstCompression mode : LossyBits/(Pixel*Frame) : 10.434Stream size : 846 MiB (98%)

AudioID : 189 (0xBD)-128 (0x80)Format : AC-3Format/Info : Audio Coding 3Mode extension : CM (complete main)Muxing mode : DVD-VideoDuration : 1mn 5sBit rate mode : ConstantBit rate : 192 KbpsChannel(s) : 2 channelsChannel positions : Front: L RSampling rate : 48.0 KHzBit depth : 16 bitsCompression mode : LossyDelay relative to video : -66msStream size : 1.50 MiB (0%)

TextID : 189 (0xBD)-32 (0x20)Format : RLEFormat/Info : Run-length encodingMuxing mode : DVD-VideoDelay relative to video : -66ms

Menu

GeneralComplete name : E:\torrents\Dead Can Dance -Toward The Within- 1994 (DVD)\VIDEO_TS\VTS_01_1.VOBFormat : MPEG-PSFile size : 1 023 MiBDuration : 28mn 41sOverall bit rate mode : VariableOverall bit rate : 4 985 Kbps

VideoID : 224 (0xE0)Format : MPEG VideoFormat version : Version 2Format profile : Main@MainFormat settings, BVOP : YesFormat settings, Matrix : CustomFormat settings, GOP : M=3, N=15Duration : 28mn 41sBit rate mode : VariableBit rate : 4 694 KbpsMaximum bit rate : 9 800 KbpsWidth : 720 pixelsHeight : 480 pixelsDisplay aspect ratio : 4:3Frame rate : 29.970 fpsStandard : NTSCColor space : YUVChroma subsampling : 4:2:0Bit depth : 8 bitsScan type : InterlacedScan order : Top Field FirstCompression mode : LossyBits/(Pixel*Frame) : 0.453Stream size : 963 MiB (94%)

AudioID : 189 (0xBD)-128 (0x80)Format : AC-3Format/Info : Audio Coding 3Format profile : Dolby DigitalMode extension : CM (complete main)Muxing mode : DVD-VideoDuration : 28mn 41sBit rate mode : ConstantBit rate : 192 KbpsChannel(s) : 2 channelsChannel positions : Front: L RSampling rate : 48.0 KHzBit depth : 16 bitsCompression mode : LossyDelay relative to video : -66msStream size : 39.4 MiB (4%)

Menu

GeneralComplete name : E:\torrents\Dead Can Dance -Toward The Within- 1994 (DVD)\VIDEO_TS\VTS_01_2.VOBFormat : MPEG-PSFile size : 1 023 MiBDuration : 28mn 40sOverall bit rate mode : VariableOverall bit rate : 4 988 Kbps

VideoID : 224 (0xE0)Format : MPEG VideoFormat version : Version 2Format profile : Main@MainFormat settings, BVOP : YesFormat settings, Matrix : CustomFormat settings, GOP : M=3, N=15Duration : 28mn 40sBit rate mode : VariableBit rate : 4 696 KbpsMaximum bit rate : 9 800 KbpsWidth : 720 pixelsHeight : 480 pixelsDisplay aspect ratio : 4:3Frame rate : 29.970 fpsStandard : NTSCColor space : YUVChroma subsampling : 4:2:0Bit depth : 8 bitsScan type : InterlacedScan order : Top Field FirstCompression mode : LossyBits/(Pixel*Frame) : 0.453Stream size : 963 MiB (94%)

AudioID : 189 (0xBD)-128 (0x80)Format : AC-3Format/Info : Audio Coding 3Format profile : Dolby DigitalMode extension : CM (complete main)Muxing mode : DVD-VideoDuration : 28mn 40sBit rate mode : ConstantBit rate : 192 KbpsChannel(s) : 2 channelsChannel positions : Front: L RSampling rate : 48.0 KHzBit depth : 16 bitsCompression mode : LossyDelay relative to video : -402msStream size : 39.4 MiB (4%)

Menu

GeneralComplete name : E:\torrents\Dead Can Dance -Toward The Within- 1994 (DVD)\VIDEO_TS\VTS_01_3.VOBFormat : MPEG-PSFile size : 461 MiBDuration : 13mn 10sOverall bit rate mode : VariableOverall bit rate : 4 891 Kbps

VideoID : 224 (0xE0)Format : MPEG VideoFormat version : Version 2Format profile : Main@MainFormat settings, BVOP : YesFormat settings, Matrix : CustomFormat settings, GOP : M=3, N=15Duration : 13mn 10sBit rate mode : VariableBit rate : 4 601 KbpsMaximum bit rate : 9 800 KbpsWidth : 720 pixelsHeight : 480 pixelsDisplay aspect ratio : 4:3Frame rate : 29.970 fpsStandard : NTSCColor space : YUVChroma subsampling : 4:2:0Bit depth : 8 bitsScan type : InterlacedScan order : Top Field FirstCompression mode : LossyBits/(Pixel*Frame) : 0.444Stream size : 433 MiB (94%)

AudioID : 189 (0xBD)-128 (0x80)Format : AC-3Format/Info : Audio Coding 3Format profile : Dolby DigitalMode extension : CM (complete main)Muxing mode : DVD-VideoDuration : 13mn 10sBit rate mode : ConstantBit rate : 192 KbpsChannel(s) : 2 channelsChannel positions : Front: L RSampling rate : 48.0 KHzBit depth : 16 bitsCompression mode : LossyDelay relative to video : -546msStream size : 18.1 MiB (4%)

Menu

GeneralComplete name : E:\torrents\Dead Can Dance -Toward The Within- 1994 (DVD)\VIDEO_TS\VTS_02_0.BUPFormat : DVD VideoFormat profile : ProgramFile size : 20.0 KiBDuration : 6mn 53sOverall bit rate mode : VariableOverall bit rate : 396 bps

VideoID : 224 (0xE0)Format : MPEG VideoFormat version : Version 2Duration : 6mn 53sBit rate mode : VariableWidth : 720 pixelsHeight : 480 pixelsDisplay aspect ratio : 4:3Frame rate : 29.970 fpsStandard : NTSCCompression mode : Lossy

AudioID : 128 (0x80)Format : AC-3Format/Info : Audio Coding 3Duration : 6mn 53sChannel(s) : 2 channelsSampling rate : 48.0 KHzCompression mode : LossyLanguage : English

Menu #1Duration : 6mn 53s00:00:00.000 : Chapter 1List (Audio) : 0

Menu #2Duration : 6mn 53s00:00:00.000 : Chapter 1List (Audio) : 0

GeneralComplete name : E:\torrents\Dead Can Dance -Toward The Within- 1994 (DVD)\VIDEO_TS\VTS_02_0.IFOFormat : DVD VideoFormat profile : ProgramFile size : 20.0 KiBDuration : 6mn 53sOverall bit rate mode : VariableOverall bit rate : 396 bps

VideoID : 224 (0xE0)Format : MPEG VideoFormat version : Version 2Duration : 6mn 53sBit rate mode : VariableWidth : 720 pixelsHeight : 480 pixelsDisplay aspect ratio : 4:3Frame rate : 29.970 fpsStandard : NTSCCompression mode : Lossy

AudioID : 128 (0x80)Format : AC-3Format/Info : Audio Coding 3Duration : 6mn 53sChannel(s) : 2 channelsSampling rate : 48.0 KHzCompression mode : LossyLanguage : English

Menu #1Duration : 6mn 53s00:00:00.000 : Chapter 1List (Audio) : 0

Menu #2Duration : 6mn 53s00:00:00.000 : Chapter 1List (Audio) : 0

GeneralComplete name : E:\torrents\Dead Can Dance -Toward The Within- 1994 (DVD)\VIDEO_TS\VTS_02_0.VOBFormat : MPEG-PSFile size : 156 KiBDuration : 33msOverall bit rate mode : VariableOverall bit rate : 38.7 Mbps

VideoID : 224 (0xE0)Format : MPEG VideoFormat version : Version 2Format profile : Main@MainFormat settings, BVOP : NoFormat settings, Matrix : CustomDuration : 33msBit rate mode : VariableMaximum bit rate : 8 000 KbpsWidth : 720 pixelsHeight : 480 pixelsDisplay aspect ratio : 4:3Frame rate : 29.970 fpsStandard : NTSCColor space : YUVChroma subsampling : 4:2:0Bit depth : 8 bitsScan type : ProgressiveScan order : Top Field FirstCompression mode : Lossy

TextID : 189 (0xBD)-32 (0x20)Format : RLEFormat/Info : Run-length encodingMuxing mode : DVD-Video

Menu

GeneralComplete name : E:\torrents\Dead Can Dance -Toward The Within- 1994 (DVD)\VIDEO_TS\VTS_02_1.VOBFormat : MPEG-PSFile size : 247 MiBDuration : 6mn 54sOverall bit rate mode : VariableOverall bit rate : 5 000 Kbps

VideoID : 224 (0xE0)Format : MPEG VideoFormat version : Version 2Format profile : Main@MainFormat settings, BVOP : YesFormat settings, Matrix : CustomDuration : 6mn 53sBit rate mode : VariableBit rate : 4 708 KbpsMaximum bit rate : 9 800 KbpsWidth : 720 pixelsHeight : 480 pixelsDisplay aspect ratio : 4:3Frame rate : 29.970 fpsStandard : NTSCColor space : YUVChroma subsampling : 4:2:0Bit depth : 8 bitsScan type : InterlacedScan order : Top Field FirstCompression mode : LossyBits/(Pixel*Frame) : 0.455Stream size : 232 MiB (94%)

AudioID : 189 (0xBD)-128 (0x80)Format : AC-3Format/Info : Audio Coding 3Mode extension : CM (complete main)Muxing mode : DVD-VideoDuration : 6mn 54sBit rate mode : ConstantBit rate : 192 KbpsChannel(s) : 2 channelsChannel positions : Front: L RSampling rate : 48.0 KHzBit depth : 16 bitsCompression mode : LossyDelay relative to video : -66msStream size : 9.48 MiB (4%)

Menu

GeneralComplete name : E:\torrents\Dead Can Dance -Toward The Within- 1994 (DVD)\VIDEO_TS\VTS_03_0.BUPFormat : DVD VideoFormat profile : ProgramFile size : 20.0 KiBDuration : 4mn 29sOverall bit rate mode : VariableOverall bit rate : 606 bps

VideoID : 224 (0xE0)Format : MPEG VideoFormat version : Version 2Duration : 4mn 29sBit rate mode : VariableWidth : 720 pixelsHeight : 480 pixelsDisplay aspect ratio : 4:3Frame rate : 29.970 fpsStandard : NTSCCompression mode : Lossy

AudioID : 128 (0x80)Format : AC-3Format/Info : Audio Coding 3Duration : 4mn 29sChannel(s) : 2 channelsSampling rate : 48.0 KHzCompression mode : LossyLanguage : English

Menu #1Duration : 4mn 29s00:00:00.000 : Chapter 1List (Audio) : 0

Menu #2Duration : 4mn 29s00:00:00.000 : Chapter 1List (Audio) : 0

GeneralComplete name : E:\torrents\Dead Сan Dance -Toward The Within- 1994 (DVD)\VIDEO_TS\VTS_03_0.IFOFormat : DVD VideoFormat profile : ProgramFile size : 20.0 KiBDuration : 4mn 29sOverall bit rate mode : VariableOverall bit rate : 606 bps

VideoID : 224 (0xE0)Format : MPEG VideoFormat version : Version 2Duration : 4mn 29sBit rate mode : VariableWidth : 720 pixelsHeight : 480 pixelsDisplay aspect ratio : 4:3Frame rate : 29.970 fpsStandard : NTSCCompression mode : Lossy

AudioID : 128 (0x80)Format : AC-3Format/Info : Audio Coding 3Duration : 4mn 29sChannel(s) : 2 channelsSampling rate : 48.0 KHzCompression mode : LossyLanguage : English

Menu #1Duration : 4mn 29s00:00:00.000 : Chapter 1List (Audio) : 0

Menu #2Duration : 4mn 29s00:00:00.000 : Chapter 1List (Audio) : 0

GeneralComplete name : E:\torrents\Dead Can Dance -Toward The Within- 1994 (DVD)\VIDEO_TS\VTS_03_0.VOBFormat : MPEG-PSFile size : 156 KiBDuration : 33msOverall bit rate mode : VariableOverall bit rate : 38.7 Mbps

VideoID : 224 (0xE0)Format : MPEG VideoFormat version : Version 2Format profile : Main@MainFormat settings, BVOP : NoFormat settings, Matrix : CustomDuration : 33msBit rate mode : VariableMaximum bit rate : 8 000 KbpsWidth : 720 pixelsHeight : 480 pixelsDisplay aspect ratio : 4:3Frame rate : 29.970 fpsStandard : NTSCColor space : YUVChroma subsampling : 4:2:0Bit depth : 8 bitsScan type : ProgressiveScan order : Top Field FirstCompression mode : Lossy

TextID : 189 (0xBD)-32 (0x20)Format : RLEFormat/Info : Run-length encodingMuxing mode : DVD-Video

Menu

GeneralComplete name : E:\torrents\Dead Can Dance -Toward The Within- 1994 (DVD)\VIDEO_TS\VTS_03_1.VOBFormat : MPEG-PSFile size : 152 MiBDuration : 4mn 30sOverall bit rate mode : VariableOverall bit rate : 4 726 Kbps

VideoID : 224 (0xE0)Format : MPEG VideoFormat version : Version 2Format profile : Main@MainFormat settings, BVOP : YesFormat settings, Matrix : CustomDuration : 4mn 30sBit rate mode : VariableBit rate : 4 440 KbpsMaximum bit rate : 9 800 KbpsWidth : 720 pixelsHeight : 480 pixelsDisplay aspect ratio : 4:3Frame rate : 29.970 fpsStandard : NTSCColor space : YUVChroma subsampling : 4:2:0Bit depth : 8 bitsScan type : InterlacedScan order : Top Field FirstCompression mode : LossyBits/(Pixel*Frame) : 0.429Stream size : 143 MiB (94%)

AudioID : 189 (0xBD)-128 (0x80)Format : AC-3Format/Info : Audio Coding 3Mode extension : CM (complete main)Muxing mode : DVD-VideoDuration : 4mn 30sBit rate mode : ConstantBit rate : 192 KbpsChannel(s) : 2 channelsChannel positions : Front: L RSampling rate : 48.0 KHzBit depth : 16 bitsCompression mode : LossyDelay relative to video : -66msStream size : 6.18 MiB (4%)

Menu

GeneralComplete name : E:\torrents\Dead Can Dance -Toward The Within- 1994 (DVD)\VIDEO_TS\VTS_04_0.BUPFormat : DVD VideoFormat profile : ProgramFile size : 20.0 KiBDuration : 8mn 6sOverall bit rate mode : VariableOverall bit rate : 337 bps

VideoID : 224 (0xE0)Format : MPEG VideoFormat version : Version 2Duration : 8mn 6sBit rate mode : VariableWidth : 720 pixelsHeight : 480 pixelsDisplay aspect ratio : 4:3Frame rate : 29.970 fpsStandard : NTSCCompression mode : Lossy

AudioID : 128 (0x80)Format : AC-3Format/Info : Audio Coding 3Duration : 8mn 6sChannel(s) : 2 channelsSampling rate : 48.0 KHzCompression mode : LossyLanguage : English

Menu #1Duration : 8mn 6s00:00:00.000 : Chapter 1List (Audio) : 0

Menu #2Duration : 8mn 6s00:00:00.000 : Chapter 1List (Audio) : 0

GeneralComplete name : E:\torrents\Dead Can Dance -Toward The Within- 1994 (DVD)\VIDEO_TS\VTS_04_0.IFOFormat : DVD VideoFormat profile : ProgramFile size : 20.0 KiBDuration : 8mn 6sOverall bit rate mode : VariableOverall bit rate : 337 bps

VideoID : 224 (0xE0)Format : MPEG VideoFormat version : Version 2Duration : 8mn 6sBit rate mode : VariableWidth : 720 pixelsHeight : 480 pixelsDisplay aspect ratio : 4:3Frame rate : 29.970 fpsStandard : NTSCCompression mode : Lossy

AudioID : 128 (0x80)Format : AC-3Format/Info : Audio Coding 3Duration : 8mn 6sChannel(s) : 2 channelsSampling rate : 48.0 KHzCompression mode : LossyLanguage : English

Menu #1Duration : 8mn 6s00:00:00.000 : Chapter 1List (Audio) : 0

Menu #2Duration : 8mn 6s00:00:00.000 : Chapter 1List (Audio) : 0

GeneralComplete name : E:\torrents\Dead Can Dance -Toward The Within- 1994 (DVD)\VIDEO_TS\VTS_04_0.VOBFormat : MPEG-PSFile size : 156 KiBDuration : 33msOverall bit rate mode : VariableOverall bit rate : 38.7 Mbps

VideoID : 224 (0xE0)Format : MPEG VideoFormat version : Version 2Format profile : Main@MainFormat settings, BVOP : NoFormat settings, Matrix : CustomDuration : 33msBit rate mode : VariableMaximum bit rate : 8 000 KbpsWidth : 720 pixelsHeight : 480 pixelsDisplay aspect ratio : 4:3Frame rate : 29.970 fpsStandard : NTSCColor space : YUVChroma subsampling : 4:2:0Bit depth : 8 bitsScan type : ProgressiveScan order : Top Field FirstCompression mode : Lossy

TextID : 189 (0xBD)-32 (0x20)Format : RLEFormat/Info : Run-length encodingMuxing mode : DVD-Video

Menu

GeneralComplete name : E:\torrents\Dead Can Dance -Toward The Within- 1994 (DVD)\VIDEO_TS\VTS_04_1.VOBFormat : MPEG-PSFile size : 306 MiBDuration : 8mn 6sOverall bit rate mode : VariableOverall bit rate : 5 280 Kbps

VideoID : 224 (0xE0)Format : MPEG VideoFormat version : Version 2Format profile : Main@MainFormat settings, BVOP : YesFormat settings, Matrix : CustomDuration : 8mn 6sBit rate mode : VariableBit rate : 4 983 KbpsMaximum bit rate : 9 800 KbpsWidth : 720 pixelsHeight : 480 pixelsDisplay aspect ratio : 4:3Frame rate : 29.970 fpsStandard : NTSCColor space : YUVChroma subsampling : 4:2:0Bit depth : 8 bitsScan type : InterlacedScan order : Top Field FirstCompression mode : LossyBits/(Pixel*Frame) : 0.481Stream size : 289 MiB (94%)

AudioID : 189 (0xBD)-128 (0x80)Format : AC-3Format/Info : Audio Coding 3Mode extension : CM (complete main)Muxing mode : DVD-VideoDuration : 8mn 6sBit rate mode : ConstantBit rate : 192 KbpsChannel(s) : 2 channelsChannel positions : Front: L RSampling rate : 48.0 KHzBit depth : 16 bitsCompression mode : LossyDelay relative to video : -66msStream size : 11.1 MiB (4%)

Menu

GeneralComplete name : E:\torrents\Dead Can Dance -Toward The Within- 1994 (DVD)\VIDEO_TS\VTS_05_0.BUPFormat : DVD VideoFormat profile : ProgramFile size : 18.0 KiBDuration : 3mn 2sOverall bit rate mode : VariableOverall bit rate : 806 bps

VideoID : 224 (0xE0)Format : MPEG VideoFormat version : Version 2Duration : 3mn 2sBit rate mode : VariableWidth : 720 pixelsHeight : 480 pixelsDisplay aspect ratio : 4:3Frame rate : 29.970 fpsStandard : NTSCCompression mode : Lossy

AudioID : 128 (0x80)Format : AC-3Format/Info : Audio Coding 3Duration : 3mn 2sChannel(s) : 2 channelsSampling rate : 48.0 KHzCompression mode : LossyLanguage : English

Menu #1Duration : 3mn 2s00:00:00.000 : Chapter 1List (Audio) : 0

Menu #2Duration : 3mn 2s00:00:00.000 : Chapter 1List (Audio) : 0

GeneralComplete name : E:\torrents\Dead Сan Dance -Toward The Within- 1994 (DVD)\VIDEO_TS\VTS_05_0.IFOFormat : DVD VideoFormat profile : ProgramFile size : 18.0 KiBDuration : 3mn 2sOverall bit rate mode : VariableOverall bit rate : 806 bps

VideoID : 224 (0xE0)Format : MPEG VideoFormat version : Version 2Duration : 3mn 2sBit rate mode : VariableWidth : 720 pixelsHeight : 480 pixelsDisplay aspect ratio : 4:3Frame rate : 29.970 fpsStandard : NTSCCompression mode : Lossy

AudioID : 128 (0x80)Format : AC-3Format/Info : Audio Coding 3Duration : 3mn 2sChannel(s) : 2 channelsSampling rate : 48.0 KHzCompression mode : LossyLanguage : English

Menu #1Duration : 3mn 2s00:00:00.000 : Chapter 1List (Audio) : 0

Menu #2Duration : 3mn 2s00:00:00.000 : Chapter 1List (Audio) : 0

GeneralComplete name : E:\torrents\Dead Can Dance -Toward The Within- 1994 (DVD)\VIDEO_TS\VTS_05_0.VOBFormat : MPEG-PSFile size : 156 KiBDuration : 33msOverall bit rate mode : VariableOverall bit rate : 38.7 Mbps

VideoID : 224 (0xE0)Format : MPEG VideoFormat version : Version 2Format profile : Main@MainFormat settings, BVOP : NoFormat settings, Matrix : CustomDuration : 33msBit rate mode : VariableMaximum bit rate : 8 000 KbpsWidth : 720 pixelsHeight : 480 pixelsDisplay aspect ratio : 4:3Frame rate : 29.970 fpsStandard : NTSCColor space : YUVChroma subsampling : 4:2:0Bit depth : 8 bitsScan type : ProgressiveScan order : Top Field FirstCompression mode : Lossy

TextID : 189 (0xBD)-32 (0x20)Format : RLEFormat/Info : Run-length encodingMuxing mode : DVD-Video

Menu

GeneralComplete name : E:\torrents\Dead Can Dance -Toward The Within- 1994 (DVD)\VIDEO_TS\VTS_05_1.VOBFormat : MPEG-PSFile size : 113 MiBDuration : 3mn 3sOverall bit rate mode : VariableOverall bit rate : 5 181 Kbps

VideoID : 224 (0xE0)Format : MPEG VideoFormat version : Version 2Format profile : Main@MainFormat settings, BVOP : YesFormat settings, Matrix : CustomDuration : 3mn 2sBit rate mode : VariableBit rate : 4 886 KbpsMaximum bit rate : 9 800 KbpsWidth : 720 pixelsHeight : 480 pixelsDisplay aspect ratio : 4:3Frame rate : 29.970 fpsStandard : NTSCColor space : YUVChroma subsampling : 4:2:0Bit depth : 8 bitsScan type : InterlacedScan order : Top Field FirstCompression mode : LossyBits/(Pixel*Frame) : 0.472Stream size : 107 MiB (94%)

AudioID : 189 (0xBD)-128 (0x80)Format : AC-3Format/Info : Audio Coding 3Mode extension : CM (complete main)Muxing mode : DVD-VideoDuration : 3mn 3sBit rate mode : ConstantBit rate : 192 KbpsChannel(s) : 2 channelsChannel positions : Front: L RSampling rate : 48.0 KHzBit depth : 16 bitsCompression mode : LossyDelay relative to video : -66msStream size : 4.19 MiB (4%)

Menu

GeneralComplete name : E:\torrents\Dead Can Dance -Toward The Within- 1994 (DVD)\VIDEO_TS\VTS_06_0.BUPFormat : DVD VideoFormat profile : ProgramFile size : 20.0 KiBDuration : 6mn 56sOverall bit rate mode : VariableOverall bit rate : 393 bps

VideoID : 224 (0xE0)Format : MPEG VideoFormat version : Version 2Duration : 6mn 56sBit rate mode : VariableWidth : 720 pixelsHeight : 480 pixelsDisplay aspect ratio : 4:3Frame rate : 29.970 fpsStandard : NTSCCompression mode : Lossy

AudioID : 128 (0x80)Format : AC-3Format/Info : Audio Coding 3Duration : 6mn 56sChannel(s) : 2 channelsSampling rate : 48.0 KHzCompression mode : LossyLanguage : English

Menu #1Duration : 6mn 56s00:00:00.000 : Chapter 1List (Audio) : 0

Menu #2Duration : 6mn 56s00:00:00.000 : Chapter 1List (Audio) : 0

GeneralComplete name : E:\torrents\Dead Can Dance -Toward The Within- 1994 (DVD)\VIDEO_TS\VTS_06_0.IFOFormat : DVD VideoFormat profile : ProgramFile size : 20.0 KiBDuration : 6mn 56sOverall bit rate mode : VariableOverall bit rate : 393 bps

VideoID : 224 (0xE0)Format : MPEG VideoFormat version : Version 2Duration : 6mn 56sBit rate mode : VariableWidth : 720 pixelsHeight : 480 pixelsDisplay aspect ratio : 4:3Frame rate : 29.970 fpsStandard : NTSCCompression mode : Lossy

AudioID : 128 (0x80)Format : AC-3Format/Info : Audio Coding 3Duration : 6mn 56sChannel(s) : 2 channelsSampling rate : 48.0 KHzCompression mode : LossyLanguage : English

Menu #1Duration : 6mn 56s00:00:00.000 : Chapter 1List (Audio) : 0

Menu #2Duration : 6mn 56s00:00:00.000 : Chapter 1List (Audio) : 0

GeneralComplete name : E:\torrents\Dead Сan Dance -Toward The Within- 1994 (DVD)\VIDEO_TS\VTS_06_0.VOBFormat : MPEG-PSFile size : 156 KiBDuration : 33msOverall bit rate mode : VariableOverall bit rate : 38.7 Mbps

VideoID : 224 (0xE0)Format : MPEG VideoFormat version : Version 2Format profile : Main@MainFormat settings, BVOP : NoFormat settings, Matrix : CustomDuration : 33msBit rate mode : VariableMaximum bit rate : 8 000 KbpsWidth : 720 pixelsHeight : 480 pixelsDisplay aspect ratio : 4:3Frame rate : 29.970 fpsStandard : NTSCColor space : YUVChroma subsampling : 4:2:0Bit depth : 8 bitsScan type : ProgressiveScan order : Top Field FirstCompression mode : Lossy

TextID : 189 (0xBD)-32 (0x20)Format : RLEFormat/Info : Run-length encodingMuxing mode : DVD-Video

Menu

GeneralComplete name : E:\torrents\Dead Can Dance -Toward The Within- 1994 (DVD)\VIDEO_TS\VTS_06_1.VOBFormat : MPEG-PSFile size : 260 MiBDuration : 6mn 56sOverall bit rate mode : VariableOverall bit rate : 5 230 Kbps

VideoID : 224 (0xE0)Format : MPEG VideoFormat version : Version 2Format profile : Main@MainFormat settings, BVOP : YesFormat settings, Matrix : CustomDuration : 6mn 56sBit rate mode : VariableBit rate : 4 934 KbpsMaximum bit rate : 9 800 KbpsWidth : 720 pixelsHeight : 480 pixelsDisplay aspect ratio : 4:3Frame rate : 29.970 fpsStandard : NTSCColor space : YUVChroma subsampling : 4:2:0Bit depth : 8 bitsScan type : InterlacedScan order : Top Field FirstCompression mode : LossyBits/(Pixel*Frame) : 0.476Stream size : 245 MiB (94%)

AudioID : 189 (0xBD)-128 (0x80)Format : AC-3Format/Info : Audio Coding 3Mode extension : CM (complete main)Muxing mode : DVD-VideoDuration : 6mn 56sBit rate mode : ConstantBit rate : 192 KbpsChannel(s) : 2 channelsChannel positions : Front: L RSampling rate : 48.0 KHzBit depth : 16 bitsCompression mode : LossyDelay relative to video : -66msStream size : 9.54 MiB (4%)

Menu

GeneralComplete name : E:\torrents\Dead Can Dance -Toward The Within- 1994 (DVD)\VIDEO_TS\VTS_07_0.BUPFormat : DVD VideoFormat profile : ProgramFile size : 18.0 KiBDuration : 18s 900msOverall bit rate mode : VariableOverall bit rate : 7 801 bps

VideoID : 224 (0xE0)Format : MPEG VideoFormat version : Version 2Duration : 18s 886msBit rate mode : VariableWidth : 720 pixelsHeight : 480 pixelsDisplay aspect ratio : 4:3Frame rate : 29.970 fpsStandard : NTSCCompression mode : Lossy

AudioID : 128 (0x80)Format : AC-3Format/Info : Audio Coding 3Duration : 18s 900msChannel(s) : 2 channelsSampling rate : 48.0 KHzCompression mode : LossyLanguage : English

MenuDuration : 18s 900ms00:00:00.000 : Chapter 1List (Audio) : 0

GeneralComplete name : E:\torrents\Dead Can Dance -Toward The Within- 1994 (DVD)\VIDEO_TS\VTS_07_0.IFOFormat : DVD VideoFormat profile : ProgramFile size : 18.0 KiBDuration : 18s 900msOverall bit rate mode : VariableOverall bit rate : 7 801 bps

VideoID : 224 (0xE0)Format : MPEG VideoFormat version : Version 2Duration : 18s 886msBit rate mode : VariableWidth : 720 pixelsHeight : 480 pixelsDisplay aspect ratio : 4:3Frame rate : 29.970 fpsStandard : NTSCCompression mode : Lossy

AudioID : 128 (0x80)Format : AC-3Format/Info : Audio Coding 3Duration : 18s 900msChannel(s) : 2 channelsSampling rate : 48.0 KHzCompression mode : LossyLanguage : English

MenuDuration : 18s 900ms00:00:00.000 : Chapter 1List (Audio) : 0

GeneralComplete name : E:\torrents\Dead Can Dance -Toward The Within- 1994 (DVD)\VIDEO_TS\VTS_07_0.VOBFormat : MPEG-PSFile size : 156 KiBDuration : 33msOverall bit rate mode : VariableOverall bit rate : 38.7 Mbps

VideoID : 224 (0xE0)Format : MPEG VideoFormat version : Version 2Format profile : Main@MainFormat settings, BVOP : NoFormat settings, Matrix : CustomDuration : 33msBit rate mode : VariableMaximum bit rate : 8 000 KbpsWidth : 720 pixelsHeight : 480 pixelsDisplay aspect ratio : 4:3Frame rate : 29.970 fpsStandard : NTSCColor space : YUVChroma subsampling : 4:2:0Bit depth : 8 bitsScan type : ProgressiveScan order : Top Field FirstCompression mode : Lossy

TextID : 189 (0xBD)-32 (0x20)Format : RLEFormat/Info : Run-length encodingMuxing mode : DVD-Video

Menu

GeneralComplete name : E:\torrents\Dead Can Dance -Toward The Within- 1994 (DVD)\VIDEO_TS\VTS_07_1.VOBFormat : MPEG-PSFile size : 14.3 MiBDuration : 18s 912msOverall bit rate : 6 343 Kbps

VideoID : 224 (0xE0)Format : MPEG VideoFormat version : Version 2Format profile : Main@MainFormat settings, BVOP : YesFormat settings, Matrix : CustomFormat settings, GOP : M=3, N=15Duration : 18s 852msBit rate : 6 000 KbpsWidth : 720 pixelsHeight : 480 pixelsDisplay aspect ratio : 4:3Frame rate : 29.970 fpsStandard : NTSCColor space : YUVChroma subsampling : 4:2:0Bit depth : 8 bitsScan type : InterlacedScan order : Top Field FirstCompression mode : LossyBits/(Pixel*Frame) : 0.579Stream size : 13.5 MiB (95%)

AudioID : 189 (0xBD)-128 (0x80)Format : AC-3Format/Info : Audio Coding 3Mode extension : CM (complete main)Muxing mode : DVD-VideoDuration : 18s 912msBit rate mode : ConstantBit rate : 192 KbpsChannel(s) : 2 channelsChannel positions : Front: L RSampling rate : 48.0 KHzBit depth : 16 bitsCompression mode : LossyDelay relative to video : -66msStream size : 443 KiB (3%)

Menu


Трекер:  [ 19-Янв-2012 20:07 ]

  

Скачать .torrent

Размер .torrent файла 13 KB


Размер: 4.36 GB
Хэш (hash) релиза: 8e4c74292ab5715e4d55a309c84c7c5dc462c036

Торренты, похожие на Dead Can Dance -Toward The Within- скачать торрент

Форум Название Автор Размер S L Добавлен
Rосk | Mеtаl | Аltеrnаtivе, Рunk, Indереndеnt (losslеss) ·· (Gothic Rock\Neoclassical Darkwave\World Music) Dead Can Dance - Toward the Within - 1994, FLAC (image+.cue), lossless _N_ 482072391460 MB 0 0 1362055223

15:40

28-Фев-13

bot

Топик был перенесен в форум Фольклор, Народная и Этническая музыка (video)

Перенес Galfimbul

Хотите добавить комментарий к записи скачать торрент Dead Can Dance -Toward The Within-

!Обратная связь