Скачать через торрент музыку Dixie Chicks - VH1 Storytellers бесплатно без регистрации torrent

Если у вас наблюдаются проблемы со скриншотами, переходом по ссылками, скачиванием торрентов - проблемы в блокировщике рекламы AdBlock. #хорошегоДня!


Статистика раздачи
Размер:  5.49 GB   |    Зарегистрирован:  5 лет 10 месяцев   |    .torrent скачан:  66 раз   |   
Раздают:  1  
   
Загрузка...
 
Автор Сообщение

Galfimbul

avatar Galfimbul


Dixie Chicks - VH1 Storytellers

Страна: USA
Жанр: Alternative Country, Country, Bluegrass, Folk
Продолжительность: 01:19:51
Год выпуска: 2011 г.
Описание: Recorded live in September 2006 at the historic Los Angeles Theater, Dixie Chicks Storytellers was the grand finale in the whirlwind that surrounded the release of the band's 5x Grammy Award winning album Taking the Long Way. Fans are treated to personal anecdotes and inspiration around some of the band's biggest hits including "Not Ready to Make Nice," "Cowboy Take Me Away" and "Wide Open Spaces." Dixie Chicks Storytellers also features three never before seen performances from the original broadcast including "Lullaby," "Easy Silence" and "So Hard."

Треклист:
01 – Intro
02 – Storytellers Open
03 – Taking the Long Way (Story)
04 – Taking the Long Way
05 – Truth No. 2 (Story)
06 – Truth No. 2
07 – Silent House (Story)
08 – Silent House
09 – Cowboy Take Me Away (Story)
10 – Cowboy Take Me Away
11 – Lullaby (Story)
12 – Lullaby
13 – Band Intros
14 – Lubbock Or Leave It (Story)
15 – Lubbock Or Leave It
16 – Not Ready To Make Nice (Story)
17 – Not Ready To Make Nice
18 – Easy Silence (Story)
19 – Easy Silence
20 – So Hard (Story)
21 – So Hard
22 – Wide Open Spaces (Story)
23 – Wide Open Spaces
24 – Sin Wagon (Story)
25 – Sin Wagon
26 – End Credits
Демуксинг
eac3to
HdBrStreamExtractor
Обработка видео
DGDecodeNV
AviSynth
Rhozet Carbon Coder
Обработка аудио
Audacity
Soft Encode 1.0 - Dolby Digital 5.1
SurCode DVD-DTS
Авторинг и проверка
Обработка меню
SnagIt
MPEG Video Wizard DVD
DVD-lab PRO
DvdReMakePro
LoadPlugin("C:\Documents and Settings\chka\Desktop\CONVERT\dgdecnv2041\DGDecodeNV.dll")
DGSource("D:\00009.dgi")
LoadPlugin("C:\Program Files\AviSynth 2.5\plugins\AutoYUY2.dll")
AutoYUY2()
LoadPlugin("C:\Program Files\AviSynth 2.5\plugins\ColorMatrix.dll")
ColorMatrix(mode="Rec.709->Rec.601", inputFR=false, clamp=0)
BicubicResize(720, 480, 0, 0.5)
Я совсем не жадный и манией собственности не страдаю. Конечно можно этот релиз заливать и на других трекерах и файлообменниках. Но, так как это моя работа по авторингу, то ссылка на первоисточник обязательна. Мой ник указывать не надо. Необходимо в описании добавить наш банер или сослаться на ресурс.
Разбивка на главы по трекам: есть
Качество : BDRip=>DVD9
Формат: DVD video
Видео кодек: MPEG2
Аудио кодек: AC3, PCM, DTS
Видео: NTSC 16:9 (720x480) VBR Auto Letterboxed ~6000 (6300) kbps
Аудио: English (LinearPCM, 2 ch) 1536 kbps
Аудио2: English (Dolby AC3, 6 ch) 448 kbps
Аудио3: English (DTS, 6 ch) 1510 kbps
 
Title: Dixie Chicks - VH1 StorytellersSize: 5.49 Gb ( 5 760 484,00 KBytes ) - DVD-9Enabled regions: 1, 2, 3, 4, 5, 6, 7, 8

VTS_01 : Play Length: 01:19:51 Video: NTSC 16:9 (720x480) VBR, Auto Letterboxed Audio: English (LinearPCM, 2 ch) English (Dolby AC3, 6 ch) English (DTS, 6 ch)

* Menus Information *

VIDEO_TS MenuVideo: NTSC 4:3 (720x480) VBREnglish Language Unit : Title Menu

VTS_01 MenuVideo: NTSC 16:9 (720x480) VBR Auto LetterboxedAudio: Not specified (LinearPCM, 2 ch)English Language Unit : Root Menu

GeneralComplete name : C:\Documents and Settings\chka\Downloads\Dixie Chicks - VH1 Storytellers\VIDEO_TS\VIDEO_TS.BUPFormat : DVD VideoFormat profile : MenuFile size : 12.0 KiB

VideoID : 224 (0xE0)Format : MPEG VideoFormat version : Version 2Bit rate mode : VariableWidth : 720 pixelsHeight : 480 pixelsDisplay aspect ratio : 4:3Frame rate : 29.970 fpsStandard : NTSCCompression mode : Lossy

GeneralComplete name : C:\Documents and Settings\chka\Downloads\Dixie Chicks - VH1 Storytellers\VIDEO_TS\VIDEO_TS.IFOFormat : DVD VideoFormat profile : MenuFile size : 12.0 KiB

VideoID : 224 (0xE0)Format : MPEG VideoFormat version : Version 2Bit rate mode : VariableWidth : 720 pixelsHeight : 480 pixelsDisplay aspect ratio : 4:3Frame rate : 29.970 fpsStandard : NTSCCompression mode : Lossy

GeneralComplete name : C:\Documents and Settings\chka\Downloads\Dixie Chicks - VH1 Storytellers\VIDEO_TS\VIDEO_TS.VOBFormat : MPEG-PSFile size : 40.0 KiBDuration : 33msOverall bit rate : 9 930 Kbps

VideoID : 224 (0xE0)Format : MPEG VideoFormat version : Version 2Format profile : Main@MainFormat settings, BVOP : NoFormat settings, Matrix : DefaultDuration : 33msBit rate mode : VariableBit rate : 9 000 KbpsWidth : 720 pixelsHeight : 480 pixelsDisplay aspect ratio : 4:3Frame rate : 29.970 fpsStandard : NTSCColor space : YUVChroma subsampling : 4:2:0Bit depth : 8 bitsScan type : ProgressiveScan order : Top Field FirstCompression mode : LossyBits/(Pixel*Frame) : 0.869Stream size : 36.3 KiB (91%)

Menu

GeneralComplete name : C:\Documents and Settings\chka\Downloads\Dixie Chicks - VH1 Storytellers\VIDEO_TS\VTS_01_0.BUPFormat : DVD VideoFormat profile : ProgramFile size : 60.0 KiBDuration : 1h 19mnOverall bit rate : 102 bps

VideoID : 224 (0xE0)Format : MPEG VideoFormat version : Version 2Duration : 1h 19mnBit rate mode : VariableWidth : 720 pixelsHeight : 480 pixelsDisplay aspect ratio : 16:9Frame rate : 29.970 fpsStandard : NTSCCompression mode : Lossy

Audio #1ID : 0 (0x0)Format : PCMDuration : 1h 19mnChannel(s) : 2 channelsSampling rate : 48.0 KHzLanguage : English

Audio #2ID : 129 (0x81)Format : AC-3Format/Info : Audio Coding 3Duration : 1h 19mnChannel(s) : 6 channelsSampling rate : 48.0 KHzCompression mode : LossyLanguage : English

Audio #3ID : 138 (0x8A)Format : DTSFormat/Info : Digital Theater SystemsDuration : 1h 19mnChannel(s) : 6 channelsSampling rate : 48.0 KHzCompression mode : LossyLanguage : English

MenuDuration : 1h 19mn00:00:00.000 : Chapter 100:00:10.500 : Chapter 200:00:26.333 : Chapter 300:02:47.399 : Chapter 400:07:34.899 : Chapter 500:10:03.399 : Chapter 600:14:52.699 : Chapter 700:16:43.699 : Chapter 800:22:18.732 : Chapter 900:24:12.732 : Chapter 1000:29:29.198 : Chapter 1100:31:46.698 : Chapter 1200:37:34.031 : Chapter 1300:40:26.031 : Chapter 1400:42:20.531 : Chapter 1500:46:20.731 : Chapter 1600:47:54.731 : Chapter 1700:52:32.731 : Chapter 1800:54:14.731 : Chapter 1900:58:26.764 : Chapter 2001:01:34.764 : Chapter 2101:06:19.897 : Chapter 2201:08:51.397 : Chapter 2301:13:01.363 : Chapter 2401:15:10.863 : Chapter 2501:19:02.296 : Chapter 26List (Audio) : 0 / 1 / 2

GeneralComplete name : C:\Documents and Settings\chka\Downloads\Dixie Chicks - VH1 Storytellers\VIDEO_TS\VTS_01_0.IFOFormat : DVD VideoFormat profile : ProgramFile size : 60.0 KiBDuration : 1h 19mnOverall bit rate : 102 bps

VideoID : 224 (0xE0)Format : MPEG VideoFormat version : Version 2Duration : 1h 19mnBit rate mode : VariableWidth : 720 pixelsHeight : 480 pixelsDisplay aspect ratio : 16:9Frame rate : 29.970 fpsStandard : NTSCCompression mode : Lossy

Audio #1ID : 0 (0x0)Format : PCMDuration : 1h 19mnChannel(s) : 2 channelsSampling rate : 48.0 KHzLanguage : English

Audio #2ID : 129 (0x81)Format : AC-3Format/Info : Audio Coding 3Duration : 1h 19mnChannel(s) : 6 channelsSampling rate : 48.0 KHzCompression mode : LossyLanguage : English

Audio #3ID : 138 (0x8A)Format : DTSFormat/Info : Digital Theater SystemsDuration : 1h 19mnChannel(s) : 6 channelsSampling rate : 48.0 KHzCompression mode : LossyLanguage : English

MenuDuration : 1h 19mn00:00:00.000 : Chapter 100:00:10.500 : Chapter 200:00:26.333 : Chapter 300:02:47.399 : Chapter 400:07:34.899 : Chapter 500:10:03.399 : Chapter 600:14:52.699 : Chapter 700:16:43.699 : Chapter 800:22:18.732 : Chapter 900:24:12.732 : Chapter 1000:29:29.198 : Chapter 1100:31:46.698 : Chapter 1200:37:34.031 : Chapter 1300:40:26.031 : Chapter 1400:42:20.531 : Chapter 1500:46:20.731 : Chapter 1600:47:54.731 : Chapter 1700:52:32.731 : Chapter 1800:54:14.731 : Chapter 1900:58:26.764 : Chapter 2001:01:34.764 : Chapter 2101:06:19.897 : Chapter 2201:08:51.397 : Chapter 2301:13:01.363 : Chapter 2401:15:10.863 : Chapter 2501:19:02.296 : Chapter 26List (Audio) : 0 / 1 / 2

GeneralComplete name : C:\Documents and Settings\chka\Downloads\Dixie Chicks - VH1 Storytellers\VIDEO_TS\VTS_01_0.VOBFormat : MPEG-PSFile size : 93.6 MiBDuration : 47s 581msOverall bit rate : 16.5 MbpsWriting library : (c) 1998-2011 Womble Multimedia, Inc. / MPEG Video Wizard DVD 5.0.1.100 (03/2011) / Sep 8 2011

VideoID : 224 (0xE0)Format : MPEG VideoFormat version : Version 2Format profile : Main@MainFormat settings, BVOP : YesFormat settings, Matrix : DefaultFormat settings, GOP : M=3, N=15Duration : 47s 581msBit rate mode : VariableBit rate : 14.6 MbpsNominal bit rate : 6 500 KbpsWidth : 720 pixelsHeight : 480 pixelsDisplay aspect ratio : 16:9Frame rate : 29.970 fpsStandard : NTSCColor space : YUVChroma subsampling : 4:2:0Bit depth : 8 bitsScan type : ProgressiveCompression mode : LossyBits/(Pixel*Frame) : 1.413Stream size : 83.0 MiB (89%)Writing library : (c) 1998-2011 Womble Multimedia, Inc. / MPEG Video Wizard DVD 5.0.1.100 (03/2011) / Sep 8 2011

AudioID : 189 (0xBD)-160 (0xA0)Format : PCMFormat settings, Endianness : BigFormat settings, Sign : SignedMuxing mode : DVD-VideoDuration : 47s 356msBit rate mode : ConstantBit rate : 1 536 KbpsChannel(s) : 2 channelsChannel positions : Front: L RSampling rate : 48.0 KHzBit depth : 16 bitsStream size : 8.67 MiB (9%)

Text #1ID : 189 (0xBD)-32 (0x20)Format : RLEFormat/Info : Run-length encodingMuxing mode : DVD-Video

Text #2ID : 189 (0xBD)-33 (0x21)Format : RLEFormat/Info : Run-length encodingMuxing mode : DVD-Video

Text #3ID : 189 (0xBD)-34 (0x22)Format : RLEFormat/Info : Run-length encodingMuxing mode : DVD-Video

Menu

GeneralComplete name : C:\Documents and Settings\chka\Downloads\Dixie Chicks - VH1 Storytellers\VIDEO_TS\VTS_01_1.VOBFormat : MPEG-PSFile size : 1 000 MiBDuration : 14mn 26sOverall bit rate : 9 682 Kbps

VideoID : 224 (0xE0)Format : MPEG VideoFormat version : Version 2Format profile : Main@MainFormat settings, BVOP : YesFormat settings, Matrix : DefaultDuration : 14mn 26sBit rate mode : VariableBit rate : 5 996 KbpsNominal bit rate : 6 300 KbpsWidth : 720 pixelsHeight : 480 pixelsDisplay aspect ratio : 16:9Frame rate : 29.970 fpsStandard : NTSCColor space : YUVChroma subsampling : 4:2:0Bit depth : 8 bitsScan type : InterlacedScan order : Top Field FirstCompression mode : LossyBits/(Pixel*Frame) : 0.579Stream size : 619 MiB (62%)

Audio #1ID : 189 (0xBD)-129 (0x81)Format : AC-3Format/Info : Audio Coding 3Mode extension : CM (complete main)Muxing mode : DVD-VideoDuration : 14mn 26sBit rate mode : ConstantBit rate : 448 KbpsChannel(s) : 6 channelsChannel positions : Front: L C R, Side: L R, LFESampling rate : 48.0 KHzBit depth : 16 bitsCompression mode : LossyStream size : 46.3 MiB (5%)

Audio #2ID : 189 (0xBD)-138 (0x8A)Format : DTSFormat/Info : Digital Theater SystemsMuxing mode : DVD-VideoDuration : 14mn 26sBit rate mode : ConstantBit rate : 1 510 KbpsChannel(s) : 6 channelsChannel positions : Front: L C R, Side: L R, LFESampling rate : 48.0 KHzBit depth : 24 bitsCompression mode : LossyStream size : 156 MiB (16%)

Audio #3ID : 189 (0xBD)-160 (0xA0)Format : PCMFormat settings, Endianness : BigFormat settings, Sign : SignedMuxing mode : DVD-VideoDuration : 14mn 26sBit rate mode : ConstantBit rate : 1 536 KbpsChannel(s) : 2 channelsChannel positions : Front: L RSampling rate : 48.0 KHzBit depth : 16 bitsStream size : 159 MiB (16%)

Menu

GeneralComplete name : C:\Documents and Settings\chka\Downloads\Dixie Chicks - VH1 Storytellers\VIDEO_TS\VTS_01_2.VOBFormat : MPEG-PSFile size : 1 000 MiBDuration : 14mn 20sOverall bit rate : 9 752 Kbps

VideoID : 224 (0xE0)Format : MPEG VideoFormat version : Version 2Format profile : Main@MainFormat settings, BVOP : YesFormat settings, Matrix : DefaultFormat settings, GOP : M=3, N=15Duration : 14mn 20sBit rate mode : VariableBit rate : 6 300 KbpsWidth : 720 pixelsHeight : 480 pixelsDisplay aspect ratio : 16:9Frame rate : 29.970 fpsStandard : NTSCColor space : YUVChroma subsampling : 4:2:0Bit depth : 8 bitsScan type : InterlacedScan order : Top Field FirstCompression mode : LossyBits/(Pixel*Frame) : 0.608Stream size : 622 MiB (62%)

Audio #1ID : 189 (0xBD)-129 (0x81)Format : AC-3Format/Info : Audio Coding 3Mode extension : CM (complete main)Muxing mode : DVD-VideoDuration : 14mn 20sBit rate mode : ConstantBit rate : 448 KbpsChannel(s) : 6 channelsChannel positions : Front: L C R, Side: L R, LFESampling rate : 48.0 KHzBit depth : 16 bitsCompression mode : LossyDelay relative to video : -232msStream size : 45.9 MiB (5%)

Audio #2ID : 189 (0xBD)-138 (0x8A)Format : DTSFormat/Info : Digital Theater SystemsMuxing mode : DVD-VideoDuration : 14mn 20sBit rate mode : ConstantBit rate : 1 510 KbpsChannel(s) : 6 channelsChannel positions : Front: L C R, Side: L R, LFESampling rate : 48.0 KHzBit depth : 24 bitsCompression mode : LossyDelay relative to video : -286msStream size : 155 MiB (15%)

Audio #3ID : 189 (0xBD)-160 (0xA0)Format : PCMFormat settings, Endianness : BigFormat settings, Sign : SignedMuxing mode : DVD-VideoDuration : 14mn 20sBit rate mode : ConstantBit rate : 1 536 KbpsChannel(s) : 2 channelsChannel positions : Front: L RSampling rate : 48.0 KHzBit depth : 16 bitsDelay relative to video : -284msStream size : 158 MiB (16%)

Menu

GeneralComplete name : C:\Documents and Settings\chka\Downloads\Dixie Chicks - VH1 Storytellers\VIDEO_TS\VTS_01_3.VOBFormat : MPEG-PSFile size : 1 000 MiBDuration : 14mn 38sOverall bit rate : 9 550 Kbps

VideoID : 224 (0xE0)Format : MPEG VideoFormat version : Version 2Format profile : Main@MainFormat settings, BVOP : YesFormat settings, Matrix : DefaultFormat settings, GOP : M=3, N=15Duration : 14mn 38sBit rate mode : VariableBit rate : 5 867 KbpsNominal bit rate : 6 300 KbpsWidth : 720 pixelsHeight : 480 pixelsDisplay aspect ratio : 16:9Frame rate : 29.970 fpsStandard : NTSCColor space : YUVChroma subsampling : 4:2:0Bit depth : 8 bitsScan type : InterlacedScan order : Top Field FirstCompression mode : LossyBits/(Pixel*Frame) : 0.566Stream size : 614 MiB (61%)

Audio #1ID : 189 (0xBD)-129 (0x81)Format : AC-3Format/Info : Audio Coding 3Mode extension : CM (complete main)Muxing mode : DVD-VideoDuration : 14mn 38sBit rate mode : ConstantBit rate : 448 KbpsChannel(s) : 6 channelsChannel positions : Front: L C R, Side: L R, LFESampling rate : 48.0 KHzBit depth : 16 bitsCompression mode : LossyDelay relative to video : -239msStream size : 46.9 MiB (5%)

Audio #2ID : 189 (0xBD)-138 (0x8A)Format : DTSFormat/Info : Digital Theater SystemsMuxing mode : DVD-VideoDuration : 14mn 38sBit rate mode : ConstantBit rate : 1 510 KbpsChannel(s) : 6 channelsChannel positions : Front: L C R, Side: L R, LFESampling rate : 48.0 KHzBit depth : 24 bitsCompression mode : LossyDelay relative to video : -282msStream size : 158 MiB (16%)

Audio #3ID : 189 (0xBD)-160 (0xA0)Format : PCMFormat settings, Endianness : BigFormat settings, Sign : SignedMuxing mode : DVD-VideoDuration : 14mn 38sBit rate mode : ConstantBit rate : 1 536 KbpsChannel(s) : 2 channelsChannel positions : Front: L RSampling rate : 48.0 KHzBit depth : 16 bitsDelay relative to video : -288msStream size : 161 MiB (16%)

Menu

GeneralComplete name : C:\Documents and Settings\chka\Downloads\Dixie Chicks - VH1 Storytellers\VIDEO_TS\VTS_01_4.VOBFormat : MPEG-PSFile size : 1 000 MiBDuration : 14mn 28sOverall bit rate : 9 656 Kbps

VideoID : 224 (0xE0)Format : MPEG VideoFormat version : Version 2Format profile : Main@MainFormat settings, BVOP : YesFormat settings, Matrix : DefaultFormat settings, GOP : M=3, N=15Duration : 14mn 28sBit rate mode : VariableBit rate : 5 970 KbpsNominal bit rate : 6 300 KbpsWidth : 720 pixelsHeight : 480 pixelsDisplay aspect ratio : 16:9Frame rate : 29.970 fpsStandard : NTSCColor space : YUVChroma subsampling : 4:2:0Bit depth : 8 bitsScan type : InterlacedScan order : Top Field FirstCompression mode : LossyBits/(Pixel*Frame) : 0.576Stream size : 618 MiB (62%)

Audio #1ID : 189 (0xBD)-129 (0x81)Format : AC-3Format/Info : Audio Coding 3Mode extension : CM (complete main)Muxing mode : DVD-VideoDuration : 14mn 28sBit rate mode : ConstantBit rate : 448 KbpsChannel(s) : 6 channelsChannel positions : Front: L C R, Side: L R, LFESampling rate : 48.0 KHzBit depth : 16 bitsCompression mode : LossyDelay relative to video : -238msStream size : 46.4 MiB (5%)

Audio #2ID : 189 (0xBD)-138 (0x8A)Format : DTSFormat/Info : Digital Theater SystemsMuxing mode : DVD-VideoDuration : 14mn 28sBit rate mode : ConstantBit rate : 1 510 KbpsChannel(s) : 6 channelsChannel positions : Front: L C R, Side: L R, LFESampling rate : 48.0 KHzBit depth : 24 bitsCompression mode : LossyDelay relative to video : -280msStream size : 156 MiB (16%)

Audio #3ID : 189 (0xBD)-160 (0xA0)Format : PCMFormat settings, Endianness : BigFormat settings, Sign : SignedMuxing mode : DVD-VideoDuration : 14mn 28sBit rate mode : ConstantBit rate : 1 536 KbpsChannel(s) : 2 channelsChannel positions : Front: L RSampling rate : 48.0 KHzBit depth : 16 bitsDelay relative to video : -285msStream size : 159 MiB (16%)

Menu

GeneralComplete name : C:\Documents and Settings\chka\Downloads\Dixie Chicks - VH1 Storytellers\VIDEO_TS\VTS_01_5.VOBFormat : MPEG-PSFile size : 1 000 MiBDuration : 14mn 26sOverall bit rate : 9 684 Kbps

VideoID : 224 (0xE0)Format : MPEG VideoFormat version : Version 2Format profile : Main@MainFormat settings, BVOP : YesFormat settings, Matrix : DefaultFormat settings, GOP : M=3, N=15Duration : 14mn 26sBit rate mode : VariableBit rate : 5 998 KbpsNominal bit rate : 6 300 KbpsWidth : 720 pixelsHeight : 480 pixelsDisplay aspect ratio : 16:9Frame rate : 29.970 fpsStandard : NTSCColor space : YUVChroma subsampling : 4:2:0Bit depth : 8 bitsScan type : InterlacedScan order : Top Field FirstCompression mode : LossyBits/(Pixel*Frame) : 0.579Stream size : 619 MiB (62%)

Audio #1ID : 189 (0xBD)-129 (0x81)Format : AC-3Format/Info : Audio Coding 3Mode extension : CM (complete main)Muxing mode : DVD-VideoDuration : 14mn 26sBit rate mode : ConstantBit rate : 448 KbpsChannel(s) : 6 channelsChannel positions : Front: L C R, Side: L R, LFESampling rate : 48.0 KHzBit depth : 16 bitsCompression mode : LossyDelay relative to video : -236msStream size : 46.3 MiB (5%)

Audio #2ID : 189 (0xBD)-138 (0x8A)Format : DTSFormat/Info : Digital Theater SystemsMuxing mode : DVD-VideoDuration : 14mn 26sBit rate mode : ConstantBit rate : 1 510 KbpsChannel(s) : 6 channelsChannel positions : Front: L C R, Side: L R, LFESampling rate : 48.0 KHzBit depth : 24 bitsCompression mode : LossyDelay relative to video : -278msStream size : 156 MiB (16%)

Audio #3ID : 189 (0xBD)-160 (0xA0)Format : PCMFormat settings, Endianness : BigFormat settings, Sign : SignedMuxing mode : DVD-VideoDuration : 14mn 26sBit rate mode : ConstantBit rate : 1 536 KbpsChannel(s) : 2 channelsChannel positions : Front: L RSampling rate : 48.0 KHzBit depth : 16 bitsDelay relative to video : -287msStream size : 159 MiB (16%)

Menu

GeneralComplete name : C:\Documents and Settings\chka\Downloads\Dixie Chicks - VH1 Storytellers\VIDEO_TS\VTS_01_6.VOBFormat : MPEG-PSFile size : 532 MiBDuration : 7mn 36sOverall bit rate : 9 769 Kbps

VideoID : 224 (0xE0)Format : MPEG VideoFormat version : Version 2Format profile : Main@MainFormat settings, BVOP : YesFormat settings, Matrix : DefaultDuration : 7mn 36sBit rate mode : VariableBit rate : 6 300 KbpsWidth : 720 pixelsHeight : 480 pixelsDisplay aspect ratio : 16:9Frame rate : 29.970 fpsStandard : NTSCColor space : YUVChroma subsampling : 4:2:0Bit depth : 8 bitsScan type : InterlacedScan order : Top Field FirstCompression mode : LossyBits/(Pixel*Frame) : 0.608Stream size : 331 MiB (62%)

Audio #1ID : 189 (0xBD)-129 (0x81)Format : AC-3Format/Info : Audio Coding 3Mode extension : CM (complete main)Muxing mode : DVD-VideoDuration : 7mn 36sBit rate mode : ConstantBit rate : 448 KbpsChannel(s) : 6 channelsChannel positions : Front: L C R, Side: L R, LFESampling rate : 48.0 KHzBit depth : 16 bitsCompression mode : LossyDelay relative to video : -263msStream size : 24.4 MiB (5%)

Audio #2ID : 189 (0xBD)-138 (0x8A)Format : DTSFormat/Info : Digital Theater SystemsMuxing mode : DVD-VideoDuration : 7mn 36sBit rate mode : ConstantBit rate : 1 510 KbpsChannel(s) : 6 channelsChannel positions : Front: L C R, Side: L R, LFESampling rate : 48.0 KHzBit depth : 24 bitsCompression mode : LossyDelay relative to video : -284msStream size : 82.1 MiB (15%)

Audio #3ID : 189 (0xBD)-160 (0xA0)Format : PCMFormat settings, Endianness : BigFormat settings, Sign : SignedMuxing mode : DVD-VideoDuration : 7mn 36sBit rate mode : ConstantBit rate : 1 536 KbpsChannel(s) : 2 channelsChannel positions : Front: L RSampling rate : 48.0 KHzBit depth : 16 bitsDelay relative to video : -291msStream size : 83.5 MiB (16%)


Трекер:  [ 19-Янв-2012 19:48 ]

  

Скачать .torrent

Размер .torrent файла 28 KB


Размер: 5.49 GB
Хэш (hash) релиза: d5d65bcb9af9c1e7ed9714e19d7f4fb45d008580

bot

Топик был перенесен в форум Фольклор, Народная и Этническая музыка (video)

Перенес Galfimbul

Хотите добавить комментарий к записи скачать торрент Dixie Chicks - VH1 Storytellers

!Обратная связь