Скачать через торрент музыку Юрий Никулин - Песня про зайцев бесплатно без регистрации torrent

Если у вас наблюдаются проблемы со скриншотами, переходом по ссылками, скачиванием торрентов - проблемы в блокировщике рекламы AdBlock. #хорошегоДня!


Статистика раздачи
Размер:  121 MB   |    Зарегистрирован:  5 лет 10 месяцев   |    .torrent скачан:  46 раз   |   
Раздают:  1  
   
Загрузка...
 
Автор Сообщение

Galfimbul

avatar Galfimbul


Юрий Никулин - Песня про зайцев (СD L-Junction)

Жанр: Retro
Страна-производитель диска: Russia, Sweden
Год выпуска диска: 1999
Издатель (лейбл): L-Junction Records
Номер по каталогу: LJCD030-1
Страна: Russia
Аудио кодек: *.flac
Тип рипа: tracks+.cue
Битрейт аудио: lossless
Продолжительность: 23:34
Источник: Собственный рип
Наличие сканов: Да

Треклист:
1 - Ю.Никулин, Г.Вицин, Е.Моргунов - Постой, паровоз! (2:32)
2 - Ю.Никулин - Если б я был султан... (2:39)
3 - Ю.Никулин, А.Миронов - Жрица любви (0:36)
4 - Ю.Никулин, А.Миронов - Поскользнулся, упал... Очнулся - гипс! (0:35)
5 - Ю.Никулин - Это - не таксист... Бандит! (1:21)
6 - Н.Трофимов, В. Гуляев - А может... - Не надо! (0:40)
7 - Ю.Никулин, Н.Мордюкова - ... У нас управдом - друг человека! (0:44)
8 - Ю.Никулин, А.Миронов - Приезжайте к нам на Колыму... (0:53)
9 - Ю.Никулин - Песня про зайцев (3:06)
10 - Ю.Никулин, С.Светличная - А у вас нет такого же, но без крыльев (1:27)
11 - Ю.Никулин, С.Светличная & А.Ведищева - Отель 'Атлантик' - Помоги мне (4:20)
12 - Ю.Никулин, А.Папанов - Привет Михаил Иванычу! (1:48)
13 - Оркестр кинематографии - Рыбалка у 'Белых скал' (2:53)
матрица: CD PLANT AB LJCD 030 GM02
 
Exact Audio Copy V0.99 prebeta 5 from 4. May 2009

Отчёт EAC об извлечении, выполненном 31. октября 2011, 14:34

Various / Юрий Никулин - Песня про зайцев (L-Junction LJCD030-1)

Дисковод: PIONEER DVD-RW DVR-115D Adapter: 4 ID: 2

Режим чтения : ДостоверностьИспользование точного потока : ДаОтключение кэша аудио : ДаИспользование указателей C2 : Нет

Коррекция смещения при чтении : 48Способность читать области Lead-in и Lead-out : НетЗаполнение пропущенных сэмплов тишиной : ДаУдаление блоков с тишиной в начале и конце : НетПри вычислениях CRC использовались нулевые сэмплы : ДаИнтерфейс : Встроенный Win32-интерфейс для Win NT/2000Обработка зазоров : Добавлено к предыдущему треку

Выходной формат : Внутренние WAV-операцииФормат сэмплов : 44.100 Гц; 16 бит; стерео

TOC извлечённого CD

Трек | Старт | Длительность | Начальный сектор | Конечный сектор --------------------------------------------------------------------- 1 | 0:00.00 | 2:32.60 | 0 | 11459 2 | 2:32.60 | 2:39.72 | 11460 | 23456 3 | 5:12.57 | 0:36.63 | 23457 | 26219 4 | 5:49.45 | 0:35.27 | 26220 | 28871 5 | 6:24.72 | 1:21.68 | 28872 | 35014 6 | 7:46.65 | 0:40.00 | 35015 | 38014 7 | 8:26.65 | 0:44.15 | 38015 | 41329 8 | 9:11.05 | 0:53.40 | 41330 | 45344 9 | 10:04.45 | 3:06.35 | 45345 | 59329 10 | 13:11.05 | 1:27.10 | 59330 | 65864 11 | 14:38.15 | 4:20.05 | 65865 | 85369 12 | 18:58.20 | 1:48.47 | 85370 | 93516 13 | 20:46.67 | 2:53.70 | 93517 | 106561

Трек 1

Имя файла C:\!\Юрий Никулин - Песня про зайцев (1999 L-Junction LJCD030-1)\01 - Ю.Никулин, Г.Вицин, Е.Моргунов - Постой, паровоз!.wav

Длина предзазора 0:00:02.00

Пиковый уровень 71.9 % Качество трека 100.0 % CRC теста 06D8BD62 CRC копии 06D8BD62 Копирование... OK

Трек 2

Имя файла C:\!\Юрий Никулин - Песня про зайцев (1999 L-Junction LJCD030-1)\02 - Ю.Никулин - Если б я был султан....wav

Длина предзазора 0:00:01.55

Пиковый уровень 73.6 % Качество трека 100.0 % CRC теста D19A10D8 CRC копии D19A10D8 Копирование... OK

Трек 3

Имя файла C:\!\Юрий Никулин - Песня про зайцев (1999 L-Junction LJCD030-1)\03 - Ю.Никулин, А.Миронов - Жрица любви.wav

Длина предзазора 0:00:01.35

Пиковый уровень 74.1 % Качество трека 99.7 % CRC теста 277A36A7 CRC копии 277A36A7 Копирование... OK

Трек 4

Имя файла C:\!\Юрий Никулин - Песня про зайцев (1999 L-Junction LJCD030-1)\04 - Ю.Никулин, А.Миронов - Поскользнулся, упал... Очнулся - гипс!.wav

Длина предзазора 0:00:01.38

Пиковый уровень 88.6 % Качество трека 100.0 % CRC теста 5D6B37C5 CRC копии 5D6B37C5 Копирование... OK

Трек 5

Имя файла C:\!\Юрий Никулин - Песня про зайцев (1999 L-Junction LJCD030-1)\05 - Ю.Никулин - Это - не таксист... Бандит!.wav

Длина предзазора 0:00:03.25

Пиковый уровень 100.0 % Качество трека 100.0 % CRC теста 2F1D144F CRC копии 2F1D144F Копирование... OK

Трек 6

Имя файла C:\!\Юрий Никулин - Песня про зайцев (1999 L-Junction LJCD030-1)\06 - Н.Трофимов, В. Гуляев - А может... - Не надо!.wav

Длина предзазора 0:00:03.10

Пиковый уровень 80.0 % Качество трека 100.0 % CRC теста E318B566 CRC копии E318B566 Копирование... OK

Трек 7

Имя файла C:\!\Юрий Никулин - Песня про зайцев (1999 L-Junction LJCD030-1)\07 - Ю.Никулин, Н.Мордюкова - ... У нас управдом - друг человека!.wav

Длина предзазора 0:00:03.53

Пиковый уровень 52.5 % Качество трека 100.0 % CRC теста 9DD84EFC CRC копии 9DD84EFC Копирование... OK

Трек 8

Имя файла C:\!\Юрий Никулин - Песня про зайцев (1999 L-Junction LJCD030-1)\08 - Ю.Никулин, А.Миронов - Приезжайте к нам на Колыму....wav

Длина предзазора 0:00:02.18

Пиковый уровень 95.9 % Качество трека 100.0 % CRC теста 8CB0578E CRC копии 8CB0578E Копирование... OK

Трек 9

Имя файла C:\!\Юрий Никулин - Песня про зайцев (1999 L-Junction LJCD030-1)\09 - Ю.Никулин - Песня про зайцев.wav

Пиковый уровень 81.8 % Качество трека 100.0 % CRC теста 61C97C83 CRC копии 61C97C83 Копирование... OK

Трек 10

Имя файла C:\!\Юрий Никулин - Песня про зайцев (1999 L-Junction LJCD030-1)\10 - Ю.Никулин, С.Светличная - А у вас нет такого же, но без крыльев .wav

Длина предзазора 0:00:02.48

Пиковый уровень 78.8 % Качество трека 100.0 % CRC теста 598AC0E7 CRC копии 598AC0E7 Копирование... OK

Трек 11

Имя файла C:\!\Юрий Никулин - Песня про зайцев (1999 L-Junction LJCD030-1)\11 - Ю.Никулин, С.Светличная & А.Ведищева - Отель 'Атлантик' - Помоги мне.wav

Длина предзазора 0:00:01.08

Пиковый уровень 82.1 % Качество трека 100.0 % CRC теста 0E57AA55 CRC копии 0E57AA55 Копирование... OK

Трек 12

Имя файла C:\!\Юрий Никулин - Песня про зайцев (1999 L-Junction LJCD030-1)\12 - Ю.Никулин, А.Папанов - Привет Михаил Иванычу!.wav

Длина предзазора 0:00:01.70

Пиковый уровень 64.2 % Качество трека 100.0 % CRC теста 3C9E5EE4 CRC копии 3C9E5EE4 Копирование... OK

Трек 13

Имя файла C:\!\Юрий Никулин - Песня про зайцев (1999 L-Junction LJCD030-1)\13 - Оркестр кинематографии - Рыбалка у 'Белых скал'.wav

Пиковый уровень 64.3 % Качество трека 100.0 % CRC теста D4A3A33D CRC копии D4A3A33D Копирование... OK

Ошибок не произошло

Конец отчёта
 
REM GENRE RetroREM DATE 1999REM DISCID 9E058C0DREM COMMENT "ExactAudioCopy v0.99pb5"PERFORMER "Various"TITLE "Юрий Никулин - Песня про зайцев (L-Junction LJCD030-1)"FILE "01 - Ю.Никулин, Г.Вицин, Е.Моргунов - Постой, паровоз!.wav" WAVE TRACK 01 AUDIO TITLE "Постой, паровоз!" PERFORMER "Ю.Никулин, Г.Вицин, Е.Моргунов" INDEX 01 00:00:00 TRACK 02 AUDIO TITLE "Если б я был султан..." PERFORMER "Ю.Никулин" INDEX 00 02:31:05FILE "02 - Ю.Никулин - Если б я был султан....wav" WAVE INDEX 01 00:00:00 TRACK 03 AUDIO TITLE "Жрица любви" PERFORMER "Ю.Никулин, А.Миронов" INDEX 00 02:38:37FILE "03 - Ю.Никулин, А.Миронов - Жрица любви.wav" WAVE INDEX 01 00:00:00 TRACK 04 AUDIO TITLE "Поскользнулся, упал... Очнулся - гипс!" PERFORMER "Ю.Никулин, А.Миронов" INDEX 00 00:35:25FILE "04 - Ю.Никулин, А.Миронов - Поскользнулся, упал... Очнулся - гипс!.wav" WAVE INDEX 01 00:00:00 TRACK 05 AUDIO TITLE "Это - не таксист... Бандит!" PERFORMER "Ю.Никулин" INDEX 00 00:32:02FILE "05 - Ю.Никулин - Это - не таксист... Бандит!.wav" WAVE INDEX 01 00:00:00 TRACK 06 AUDIO TITLE "А может... - Не надо!" PERFORMER "Н.Трофимов, В. Гуляев" INDEX 00 01:18:58FILE "06 - Н.Трофимов, В. Гуляев - А может... - Не надо!.wav" WAVE INDEX 01 00:00:00 TRACK 07 AUDIO TITLE "... У нас управдом - друг человека!" PERFORMER "Ю.Никулин, Н.Мордюкова" INDEX 00 00:36:22FILE "07 - Ю.Никулин, Н.Мордюкова - ... У нас управдом - друг человека!.wav" WAVE INDEX 01 00:00:00 TRACK 08 AUDIO TITLE "Приезжайте к нам на Колыму..." PERFORMER "Ю.Никулин, А.Миронов" INDEX 00 00:41:72FILE "08 - Ю.Никулин, А.Миронов - Приезжайте к нам на Колыму....wav" WAVE INDEX 01 00:00:00FILE "09 - Ю.Никулин - Песня про зайцев.wav" WAVE TRACK 09 AUDIO TITLE "Песня про зайцев" PERFORMER "Ю.Никулин" INDEX 01 00:00:00 TRACK 10 AUDIO TITLE "А у вас нет такого же, но без крыльев?" PERFORMER "Ю.Никулин, С.Светличная" INDEX 00 03:03:62FILE "10 - Ю.Никулин, С.Светличная - А у вас нет такого же, но без крыльев .wav" WAVE INDEX 01 00:00:00 TRACK 11 AUDIO TITLE "Отель 'Атлантик' - Помоги мне" PERFORMER "Ю.Никулин, С.Светличная & А.Ведищева" INDEX 00 01:26:02FILE "11 - Ю.Никулин, С.Светличная & А.Ведищева - Отель 'Атлантик' - Помоги мне.wav" WAVE INDEX 01 00:00:00 TRACK 12 AUDIO TITLE "Привет Михаил Иванычу!" PERFORMER "Ю.Никулин, А.Папанов" INDEX 00 04:18:10FILE "12 - Ю.Никулин, А.Папанов - Привет Михаил Иванычу!.wav" WAVE INDEX 01 00:00:00FILE "13 - Оркестр кинематографии - Рыбалка у 'Белых скал'.wav" WAVE TRACK 13 AUDIO TITLE "Рыбалка у 'Белых скал'" PERFORMER "Оркестр кинематографии" INDEX 01 00:00:00


Трекер:  [ 02-Фев-2012 21:51 ]

  

Скачать .torrent

Размер .torrent файла 5 KB


Размер: 121 MB
Хэш (hash) релиза: 1da2083200dd69afbe230496b34cc7cea51da02c

bot

Топик был перенесен в форум Саундтреки к фильмам и мультфильмам (lossless)

Перенес Galfimbul

Хотите добавить комментарий к записи скачать торрент Юрий Никулин - Песня про зайцев

!Обратная связь