Скачать через торрент музыку Изгоняющий дьявола The Exorcist бесплатно без регистрации torrent

Если у вас наблюдаются проблемы со скриншотами, переходом по ссылками, скачиванием торрентов - проблемы в блокировщике рекламы AdBlock. #хорошегоДня!


Статистика раздачи
Размер:  234 MB   |    Зарегистрирован:  5 лет 10 месяцев   |    .torrent скачан:  39 раз   |   
Раздают:  1  
   
Загрузка...
 
Автор Сообщение

uzi2009

avatar uzi2009


Изгоняющий дьявола / The Exorcist



Жанр: Score
Композиторы: Jack Nitzche, Krzysztof Penderecki, Anton Webern, Harry Bee, Hans Werner Henze, Lalo Schifrin
Год выпуска диска: 1998
Год выпуска фильма: 1973
Страна-производитель диска: США
Издатель (лейбл): Warner Home Video
Номер по каталогу: 16177-00-CD
Аудиокодек: FLAC (*.flac)
Тип рипа: image+.cue
Битрейт аудио: lossless
Продолжительность: 51:21
Наличие сканов в содержимом раздачи: нет

Треклист:
01. Iraq (01:56)
Composed by J. Nitzsche/K. Penderecki - The National Philharmonic Orchestra conducted by Leonard Slatkin
02. Five Pieces for Orchestra (01:11)
Composed by A. Webern - The National Philharmonic Orchestra conducted by Leonard Slatkin
03. Polymorphia (11:49)
Composed by K. Penderecki - The National Philharmonic Orchestra conducted by Leonard Slatkin
04. String Quartet No. 1 (07:14)
Composed by K. Penderecki - The National Philharmonic Orchestra conducted by Leonard Slatkin
05. Beginnings from "The Wind Harp" (02:41)
Composed by H. Bee
06. Kanon for Orchestra and Tape (09:52)
Composed by K. Penderecki - The National Philharmonic Orchestra conducted by Leonard Slatkin
07. Fantasia for Strings (02:21)
Composed by H. W. Henze - The National Philharmonic Orchestra conducted by Leonard Slatkin
08. Music from the Unused Trailer (01:10)
Composed and conducted by Lalo Schifrin
09. Suite from the Unused Score to The Exorcist (11:11)
Composed and conducted by Lalo Schifrin
10. Rock Ballad (Unused Theme from The Exorcist) (01:52)
Composed and conducted by Lalo Schifrin
 
EAC extraction logfile from 9. August 2007, 13:01 for CDVarious / The Exorcist

Used drive : PIONEER DVD-RW DVR-111D Adapter: 1 ID: 0Read mode : Secure with NO C2, accurate stream, disable cacheRead offset correction : 48Overread into Lead-In and Lead-Out : Yes

Used output format : Internal WAV Routines 44.100 Hz; 16 Bit; Stereo

Other options : Fill up missing offset samples with silence : Yes Delete leading and trailing silent blocks : No Installed external ASPI interface

Range status and errorsSelected range Filename D:\Schifrin, Lalo - The Exorcist (1973) [FLAC] {1998 Warner 16177-00-CD}\Various - The Exorcist.wav

Peak level 91.2 % Range quality 100.0 % CRC BE1E5698 Copy OK

No errors occured

End of status report
 
REM GENRE SoundtrackREM DATE 1973REM DISCID 850C090AREM COMMENT "ExactAudioCopy v0.95b4"PERFORMER "Various"TITLE "The Exorcist"FILE "VA - The Exorcist.flac" WAVE TRACK 01 AUDIO TITLE "Jack Nitzsche and Krzysztof Penderecki" PERFORMER "Iraq" INDEX 00 00:00:00 INDEX 01 00:00:32 TRACK 02 AUDIO TITLE "Anton Werbern" PERFORMER "Five Pieces for Orchestra" INDEX 00 01:55:30 INDEX 01 01:56:60 TRACK 03 AUDIO TITLE "Krzysztof Penderecki" PERFORMER "Polymorphia" INDEX 01 03:08:30 TRACK 04 AUDIO TITLE "Krzysztof Penderecki" PERFORMER "String Quartet N1" INDEX 00 14:56:32 INDEX 01 14:58:12 TRACK 05 AUDIO TITLE "Henri Bee" PERFORMER "Beginnings from 'The Wind Harp'" INDEX 00 22:11:72 INDEX 01 22:12:12 TRACK 06 AUDIO TITLE "Krzysztof Penderecki" PERFORMER "Kanon for Orchestra and Tape" INDEX 00 24:52:37 INDEX 01 24:53:52 TRACK 07 AUDIO TITLE "Hans Werner Henze" PERFORMER "Fantasia for Strings" INDEX 00 34:44:47 INDEX 01 34:45:70 TRACK 08 AUDIO TITLE "Lalo Schifrin" PERFORMER "Music from the Unused Trailer" INDEX 00 36:57:60 INDEX 01 37:07:22 TRACK 09 AUDIO TITLE "Lalo Schifrin" PERFORMER "Suite from the Unused Score to The Exorcist" INDEX 00 38:12:47 INDEX 01 38:17:47 TRACK 10 AUDIO TITLE "Lalo Schifrin" PERFORMER "Rock Ballad (Unused Theme from The Exorcist)" INDEX 00 49:22:62 INDEX 01 49:28:52
 
Started at: понедельник, 09. 01. 2012. - 21:27.59

1 file found

1 -===- C:\!_TORRENT\VA - The Exorcist (1998) [FLAC]\VA - The Exorcist.flac Extracted successfully Conclusion: This track looks like CDDA with probability 100% Tempfile successfully deleted.

Finished at: понедельник, 09. 01. 2012. - 21:33.44 (operation time: 0:05.44)


Трекер:  [ 18-Янв-2012 16:54 ]

  

Скачать .torrent

Размер .torrent файла 19 KB


Размер: 234 MB
Хэш (hash) релиза: 499cb585d35a84eb0716b777828fb0b12d341a18

bot

Топик был перенесен в форум Саундтреки к фильмам и мультфильмам (lossless)

Перенес uzi2009

Хотите добавить комментарий к записи скачать торрент Изгоняющий дьявола The Exorcist

!Обратная связь