Скачать через торрент музыку Millennium - Tribal Wisdom And The Modern World бесплатно без регистрации torrent

Если у вас наблюдаются проблемы со скриншотами, переходом по ссылками, скачиванием торрентов - проблемы в блокировщике рекламы AdBlock. #хорошегоДня!


Статистика раздачи
Размер:  334 MB   |    Зарегистрирован:  5 лет 10 месяцев   |    .torrent скачан:  29 раз   |   
Раздают:  1  
   
Загрузка...
 
Автор Сообщение

uzi2009

avatar uzi2009


Millennium - Tribal Wisdom And The Modern World



Жанр: Score
Композитор: Hans Zimmer
Год выпуска диска: 1999
Год выпуска сериала: 1992
Страна и производитель диска: Holland (EMI UDEN, IFPI L046)
Издатель (лейбл): Narada
Номер по каталогу: 7243 8469622 1
EAN/UPC: 724384696221
Аудиокодек: FLAC (*.flac)
Тип рипа: tracks+.cue
Битрейт аудио: lossless
Продолжительность: 53:45
Наличие сканов в содержимом раздачи: да (CD и обложки, 600dpi)



Доп. информация:
Саундтрек к телевизионному сериалу. Самое интересное, говорят, что кроме последнего трека всю музыку написал Marc Mancina, однако это оффициально не подтверждается нигде.
Русского названия сериала нет, Вы уж простите. Музыка - похожа и на молодого Циммера, и на молодого Манчину тоже
1. Shaman's Song (00:27)
2. Stories For A Thousand Years (01:00)
3. The Journey Begins (01:58)
4. The Stone Dog (02:19)
5. Courting Song / Love In The Himalayas (03:18)
6. Inventing Reality (02:16)
7. Fiddlers / Pilgrimage To Wirikuta (04:30)
8. The Shock Of The Other (07:15)
9. Race Of The Initiates (02:00)
10. The Art Of Living (02:18)
11. Geerewol Celebrations (05:01)
12. Song For The Dead (00:56)
13. Pilgrims Chant / In The Land Of The Ancestors (03:50)
14. An Ecology Of Mind (04:32)
15. Well Song / A Desert Home (03:37)
16. Initiation Chant / Rites Of Passage (02:09)
17. The Journey Continues (03:13)
18. Millennium Theme (03:06)

 
Exact Audio Copy V1.0 beta 3 from 29. August 2011

EAC extraction logfile from 28. December 2011, 3:23

Hans Zimmer / Millennium - Tribal Wisdom And The Modern World

Used drive : HL-DT-STBD-RE BE12LU30 Adapter: 1 ID: 0

Read mode : SecureUtilize accurate stream : YesDefeat audio cache : YesMake use of C2 pointers : No

Read offset correction : 667Overread into Lead-In and Lead-Out : NoFill up missing offset samples with silence : YesDelete leading and trailing silent blocks : NoNull samples used in CRC calculations : YesUsed interface : Native Win32 interface for Win NT & 2000Gap handling : Appended to previous track

Used output format : User Defined EncoderSelected bitrate : 768 kBit/sQuality : HighAdd ID3 tag : NoCommand line compressor : C:\Program Files\Exact Audio Copy\FLAC\FLAC.EXEAdditional command line options : -6 -V -T "ARTIST=%artist%" -T "TITLE=%title%" -T "ALBUM=%albumtitle%" -T "DATE=%year%" -T "TRACKNUMBER=%tracknr%" -T "GENRE=%genre%" -T "COMMENT=%comment%" -T "ALBUMARTIST=%albuminterpret%" -T "COMPOSER=%composer%" -T "DISCNUMBER=%cdnumber%" -T "TOTALDISCS=%totalcds%" -T "TOTALTRACKS=%numtracks%" %source% -o %dest%

TOC of the extracted CD

Track | Start | Length | Start sector | End sector --------------------------------------------------------- 1 | 0:00.00 | 0:27.22 | 0 | 2046 2 | 0:27.22 | 1:00.43 | 2047 | 6589 3 | 1:27.65 | 1:57.17 | 6590 | 15381 4 | 3:25.07 | 2:19.03 | 15382 | 25809 5 | 5:44.10 | 3:18.10 | 25810 | 40669 6 | 9:02.20 | 2:16.20 | 40670 | 50889 7 | 11:18.40 | 4:30.52 | 50890 | 71191 8 | 15:49.17 | 7:15.25 | 71192 | 103841 9 | 23:04.42 | 2:00.08 | 103842 | 112849 10 | 25:04.50 | 2:16.62 | 112850 | 123111 11 | 27:21.37 | 5:00.13 | 123112 | 145624 12 | 32:21.50 | 0:58.52 | 145625 | 150026 13 | 33:20.27 | 3:47.60 | 150027 | 167111 14 | 37:08.12 | 4:31.28 | 167112 | 187464 15 | 41:39.40 | 3:37.57 | 187465 | 203796 16 | 45:17.22 | 2:08.73 | 203797 | 213469 17 | 47:26.20 | 3:12.50 | 213470 | 227919 18 | 50:38.70 | 3:06.20 | 227920 | 241889

Track 1

Filename C:\Music\01 - Hans Zimmer - Shaman's Song.wav

Pre-gap length 0:00:02.00

Peak level 51.1 % Extraction speed 0.4 X Track quality 100.0 % Test CRC B54C5B6B Copy CRC B54C5B6B Accurately ripped (confidence 5) [9947C357] (AR v1) Copy OK

Track 2

Filename C:\Music\02 - Hans Zimmer - Stories For A thousand Years.wav

Peak level 99.8 % Extraction speed 0.7 X Track quality 100.0 % Test CRC E1FE619E Copy CRC E1FE619E Accurately ripped (confidence 5) [C1B41054] (AR v1) Copy OK

Track 3

Filename C:\Music\03 - Hans Zimmer - The Journey Begins.wav

Peak level 99.9 % Extraction speed 0.9 X Track quality 100.0 % Test CRC AB5D60B0 Copy CRC AB5D60B0 Accurately ripped (confidence 5) [B6EE71F8] (AR v1) Copy OK

Track 4

Filename C:\Music\04 - Hans Zimmer - The Stone Drag.wav

Peak level 99.9 % Extraction speed 1.0 X Track quality 100.0 % Test CRC 096742FD Copy CRC 096742FD Accurately ripped (confidence 5) [ABEA1D6A] (AR v1) Copy OK

Track 5

Filename C:\Music\05 - Hans Zimmer - Courting Song , Love In The Himalayas.wav

Peak level 99.8 % Extraction speed 1.2 X Track quality 100.0 % Test CRC 8C8944F8 Copy CRC 8C8944F8 Accurately ripped (confidence 5) [4D223F40] (AR v1) Copy OK

Track 6

Filename C:\Music\06 - Hans Zimmer - Inveting Reality.wav

Peak level 98.9 % Extraction speed 1.2 X Track quality 100.0 % Test CRC 8DFD5429 Copy CRC 8DFD5429 Accurately ripped (confidence 5) [2708E306] (AR v1) Copy OK

Track 7

Filename C:\Music\07 - Hans Zimmer - Fiddlers , Pilgrimage To Winkuta.wav

Peak level 98.8 % Extraction speed 1.4 X Track quality 100.0 % Test CRC 1231A01B Copy CRC 1231A01B Accurately ripped (confidence 5) [4676881D] (AR v1) Copy OK

Track 8

Filename C:\Music\08 - Hans Zimmer - The Shock Of The Other.wav

Peak level 99.9 % Extraction speed 1.6 X Track quality 100.0 % Test CRC C525BDB5 Copy CRC C525BDB5 Accurately ripped (confidence 5) [091D67F0] (AR v1) Copy OK

Track 9

Filename C:\Music\09 - Hans Zimmer - Race Of The Initiates.wav

Peak level 89.0 % Extraction speed 1.4 X Track quality 100.0 % Test CRC 80CF2340 Copy CRC 80CF2340 Accurately ripped (confidence 5) [EAEA67BD] (AR v1) Copy OK

Track 10

Filename C:\Music\10 - Hans Zimmer - The Art Of Living.wav

Peak level 99.8 % Extraction speed 1.5 X Track quality 100.0 % Test CRC 556A163F Copy CRC 556A163F Accurately ripped (confidence 5) [07EE999C] (AR v1) Copy OK

Track 11

Filename C:\Music\11 - Hans Zimmer - Geerewol Celebration.wav

Peak level 99.9 % Extraction speed 1.8 X Track quality 100.0 % Test CRC AEBFFE44 Copy CRC AEBFFE44 Accurately ripped (confidence 5) [B2BC89FE] (AR v1) Copy OK

Track 12

Filename C:\Music\12 - Hans Zimmer - Song Of The Dead.wav

Peak level 100.0 % Extraction speed 1.3 X Track quality 100.0 % Test CRC 367BDB1D Copy CRC 367BDB1D Accurately ripped (confidence 5) [3783049E] (AR v1) Copy OK

Track 13

Filename C:\Music\13 - Hans Zimmer - Pilgrims' Chant , In The Land Of The Ancestors.wav

Peak level 99.8 % Extraction speed 1.8 X Track quality 100.0 % Test CRC 0775E430 Copy CRC 0775E430 Accurately ripped (confidence 5) [F2386596] (AR v1) Copy OK

Track 14

Filename C:\Music\14 - Hans Zimmer - An Ecology Of Mind.wav

Peak level 99.8 % Extraction speed 2.0 X Track quality 100.0 % Test CRC E851A353 Copy CRC E851A353 Accurately ripped (confidence 5) [23E45563] (AR v1) Copy OK

Track 15

Filename C:\Music\15 - Hans Zimmer - Well Song , A Desert Home.wav

Peak level 89.0 % Extraction speed 1.7 X Track quality 99.9 % Test CRC EB4186A1 Copy CRC EB4186A1 Accurately ripped (confidence 5) [AF718ED9] (AR v1) Copy OK

Track 16

Filename C:\Music\16 - Hans Zimmer - Initiation Chant , Rites Of Passage.wav

Peak level 77.3 % Extraction speed 1.8 X Track quality 100.0 % Test CRC 550637AB Copy CRC 550637AB Accurately ripped (confidence 5) [EC60E7D9] (AR v1) Copy OK

Track 17

Filename C:\Music\17 - Hans Zimmer - The Journey Continues.wav

Peak level 81.5 % Extraction speed 2.0 X Track quality 100.0 % Test CRC 90BA64DB Copy CRC 90BA64DB Accurately ripped (confidence 5) [DC717935] (AR v1) Copy OK

Track 18

Filename C:\Music\18 - Hans Zimmer - Millennium Theme.wav

Peak level 99.9 % Extraction speed 1.8 X Track quality 99.9 % Test CRC 7CCED487 Copy CRC 7CCED487 Accurately ripped (confidence 5) [472BCE8F] (AR v1) Copy OK

All tracks accurately ripped

No errors occurred

End of status report

==== Log checksum 55D836DDC3E9DB8F463F3BC2BA2F50CC93366C5B9519DA59FA2317CB974D6E74 ====
 
REM GENRE SoundtrackREM DATE 1992REM DISCID DE0C9912REM COMMENT "ExactAudioCopy v1.0b3"PERFORMER "Hans Zimmer"TITLE "Millennium - Tribal Wisdom And The Modern World"FILE "01 - Hans Zimmer - Shaman's Song.wav" WAVE TRACK 01 AUDIO TITLE "Shaman's Song" PERFORMER "Hans Zimmer" INDEX 01 00:00:00FILE "02 - Hans Zimmer - Stories For A thousand Years.wav" WAVE TRACK 02 AUDIO TITLE "Stories For A thousand Years" PERFORMER "Hans Zimmer" INDEX 01 00:00:00FILE "03 - Hans Zimmer - The Journey Begins.wav" WAVE TRACK 03 AUDIO TITLE "The Journey Begins" PERFORMER "Hans Zimmer" INDEX 01 00:00:00FILE "04 - Hans Zimmer - The Stone Drag.wav" WAVE TRACK 04 AUDIO TITLE "The Stone Drag" PERFORMER "Hans Zimmer" INDEX 01 00:00:00FILE "05 - Hans Zimmer - Courting Song , Love In The Himalayas.wav" WAVE TRACK 05 AUDIO TITLE "Courting Song / Love In The Himalayas" PERFORMER "Hans Zimmer" INDEX 01 00:00:00FILE "06 - Hans Zimmer - Inveting Reality.wav" WAVE TRACK 06 AUDIO TITLE "Inveting Reality" PERFORMER "Hans Zimmer" INDEX 01 00:00:00FILE "07 - Hans Zimmer - Fiddlers , Pilgrimage To Winkuta.wav" WAVE TRACK 07 AUDIO TITLE "Fiddlers / Pilgrimage To Winkuta" PERFORMER "Hans Zimmer" INDEX 01 00:00:00FILE "08 - Hans Zimmer - The Shock Of The Other.wav" WAVE TRACK 08 AUDIO TITLE "The Shock Of The Other" PERFORMER "Hans Zimmer" INDEX 01 00:00:00FILE "09 - Hans Zimmer - Race Of The Initiates.wav" WAVE TRACK 09 AUDIO TITLE "Race Of The Initiates" PERFORMER "Hans Zimmer" INDEX 01 00:00:00FILE "10 - Hans Zimmer - The Art Of Living.wav" WAVE TRACK 10 AUDIO TITLE "The Art Of Living" PERFORMER "Hans Zimmer" INDEX 01 00:00:00FILE "11 - Hans Zimmer - Geerewol Celebration.wav" WAVE TRACK 11 AUDIO TITLE "Geerewol Celebration" PERFORMER "Hans Zimmer" INDEX 01 00:00:00FILE "12 - Hans Zimmer - Song Of The Dead.wav" WAVE TRACK 12 AUDIO TITLE "Song Of The Dead" PERFORMER "Hans Zimmer" INDEX 01 00:00:00FILE "13 - Hans Zimmer - Pilgrims' Chant , In The Land Of The Ancestors.wav" WAVE TRACK 13 AUDIO TITLE "Pilgrims' Chant / In The Land Of The Ancestors" PERFORMER "Hans Zimmer" INDEX 01 00:00:00FILE "14 - Hans Zimmer - An Ecology Of Mind.wav" WAVE TRACK 14 AUDIO TITLE "An Ecology Of Mind" PERFORMER "Hans Zimmer" INDEX 01 00:00:00FILE "15 - Hans Zimmer - Well Song , A Desert Home.wav" WAVE TRACK 15 AUDIO TITLE "Well Song / A Desert Home" PERFORMER "Hans Zimmer" INDEX 01 00:00:00FILE "16 - Hans Zimmer - Initiation Chant , Rites Of Passage.wav" WAVE TRACK 16 AUDIO TITLE "Initiation Chant / Rites Of Passage" PERFORMER "Hans Zimmer" INDEX 01 00:00:00FILE "17 - Hans Zimmer - The Journey Continues.wav" WAVE TRACK 17 AUDIO TITLE "The Journey Continues" PERFORMER "Hans Zimmer" INDEX 01 00:00:00FILE "18 - Hans Zimmer - Millennium Theme.wav" WAVE TRACK 18 AUDIO TITLE "Millennium Theme" PERFORMER "Hans Zimmer" INDEX 01 00:00:00


Трекер:  [ 18-Янв-2012 16:29 ]

  

Скачать .torrent

Размер .torrent файла 54 KB


Размер: 334 MB
Хэш (hash) релиза: 29eec7176e8bcae332d8922e7363a1647364a149

Торренты, похожие на Millennium - Tribal Wisdom And The Modern World скачать торрент

Форум Название Автор Размер S L Добавлен
Саундтреки к фильмам и мультфильмам (mp3) ·· (Score) Миллениум: мудрость племен и современный мир / Millennium: Tribal Wisdom and The Modern World (by Hans Zimmer) - 1999 (1992), MP3 (tracks), 320 kbps Galfimbul 130176403124 MB 0 0 1464372450

21:07

27-Май-16

bot

Топик был перенесен в форум Саундтреки к фильмам и мультфильмам (lossless)

Перенес uzi2009

Хотите добавить комментарий к записи скачать торрент Millennium - Tribal Wisdom And The Modern World

!Обратная связь